Szólj hozzá a témához és letöltheted a tartalmat!

Prémium előfizetésel több szálon, várakozás nélküli letöltés, nagy sebességgel!


    Ördög (Devil) 2010.| Szinkronos amerikai horror| DVDRiP.| data.hu

    Share
    avatar
    Admin
    Admin
    Admin

    Hozzászólások száma : 493
    Join date : 2012. Feb. 06.
    Age : 68
    Tartózkodási hely : Bp.

    Ördög (Devil) 2010.| Szinkronos amerikai horror| DVDRiP.| data.hu

    Témanyitás  Admin on Csüt. Márc. 15, 2012 9:17 am







    Ördög (Devil) 2010. - Datán.


    színes, magyarul beszélő,amerikai horror, 80 perc, 2010

    Rendezte:
    John Erick Dowdle, Drew Dowdle

    szereplő(k):
    Bojana Novaković (fiatal nő)
    Jenny O'Hara (idős nő)
    Bokeem Woodbine (biztonsági őr)
    Logan Marshall-Green (szerelő)
    Geoffrey Arend (salesman)
    Chris Messina (Bowden)
    Caroline Dhavernas (Elsa Nahai)
    Jacob Vargas (Ramirez)
    Matt Craven (Lustig)
    Joe Cobden (Dwight)

    Relase:

    "Devil.2010.RETAiL.HUN.DVDRip.Xvid-Thick"

    *****************************************************************
    Codec ID : XVID
    Codec ID/Hint : XviD
    Duration : 1h 17mn
    Bit rate : 1 133 Kbps
    Width : 624 pixels
    Height : 256 pixels
    Display aspect ratio : 2.40:1
    Frame rate : 25.000 fps
    Color space : YUV
    Chroma subsampling : 4:2:0
    Bit depth : 8 bits
    Scan type : Progressive
    Compression mode : Lossy
    Bits/(Pixel*Frame) : 0.284
    Stream size : 624 MiB (89%)
    Writing library : XviD 1.2.1 (UTC 2008-12-04)

    Audio
    ID : 1
    Format : MPEG Audio
    Format version : Version 1
    Format profile : Layer 3
    Mode : Joint stereo
    Mode extension : MS Stereo
    Codec ID : 55
    Codec ID/Hint : MP3
    Duration : 1h 17mn
    Bit rate mode : Variable
    Bit rate : 134 Kbps
    Channel(s) : 2 channels
    *****************************************************************








    A film rövid tartalma:
    Öt ember teljesen átlagos módon kezdi a munkanapját Philadelphiában. Beszállnak egy irodaház liftjébe. Teljesen ismeretlenek egymás számára. Csak pár másodpercet szándékoznak a többiek társaságában tölteni, ám a fülke hirtelen elakad. A sors közbeszólt. Feltárulnak a féltve őrzött titkok, és mindenkinek felelnie kell bűneiért.
    A kezdetben csupán kényelmetlen helyzet lassan, de biztosan egyre rémületesebbé válik. Szörnyű dolgok történnek mindegyikükkel, és egyre valószínűbb, hogy az eseményeket közülük valaki irányítja. Végül kiderül az elképesztő igazság: egyikük maga az Ördög. Miközben kívülről hasztalan próbálják kiszabadítani őket, a lift utasai rájönnek, csak akkor élhetik túl ezt a napot, ha szembeszállnak a gonosszal.
    ---------------------------------------------------------------------








    NÉZD MEG A TÖBBI FELTÖLTÉSEMET IS!



    mucisu
    Leskelődő
    Leskelődő

    Hozzászólások száma : 9
    Join date : 2012. Mar. 22.

    Re: Ördög (Devil) 2010.| Szinkronos amerikai horror| DVDRiP.| data.hu

    Témanyitás  mucisu on Csüt. Márc. 22, 2012 9:19 pm

    köszi

    ykk2
    Fanatikus
    Fanatikus

    Hozzászólások száma : 27
    Join date : 2012. Feb. 19.

    Re: Ördög (Devil) 2010.| Szinkronos amerikai horror| DVDRiP.| data.hu

    Témanyitás  ykk2 on Csüt. Márc. 22, 2012 10:45 pm

    köszi

    predrag1212
    Fanatikus
    Fanatikus

    Hozzászólások száma : 29
    Join date : 2012. Mar. 04.

    Re: Ördög (Devil) 2010.| Szinkronos amerikai horror| DVDRiP.| data.hu

    Témanyitás  predrag1212 on Vas. Márc. 25, 2012 11:49 am

    köszi

    summer007
    Leskelődő
    Leskelődő

    Hozzászólások száma : 2
    Join date : 2012. Mar. 26.

    nagyon jó film köszi

    Témanyitás  summer007 on Hétf. Márc. 26, 2012 10:57 am

    Admin írta:






    Ördög (Devil) 2010. - Datán.


    színes, magyarul beszélő,amerikai horror, 80 perc, 2010

    Rendezte:
    John Erick Dowdle, Drew Dowdle

    szereplő(k):
    Bojana Novaković (fiatal nő)
    Jenny O'Hara (idős nő)
    Bokeem Woodbine (biztonsági őr)
    Logan Marshall-Green (szerelő)
    Geoffrey Arend (salesman)
    Chris Messina (Bowden)
    Caroline Dhavernas (Elsa Nahai)
    Jacob Vargas (Ramirez)
    Matt Craven (Lustig)
    Joe Cobden (Dwight)

    Relase:

    "Devil.2010.RETAiL.HUN.DVDRip.Xvid-Thick"

    *****************************************************************
    Codec ID : XVID
    Codec ID/Hint : XviD
    Duration : 1h 17mn
    Bit rate : 1 133 Kbps
    Width : 624 pixels
    Height : 256 pixels
    Display aspect ratio : 2.40:1
    Frame rate : 25.000 fps
    Color space : YUV
    Chroma subsampling : 4:2:0
    Bit depth : 8 bits
    Scan type : Progressive
    Compression mode : Lossy
    Bits/(Pixel*Frame) : 0.284
    Stream size : 624 MiB (89%)
    Writing library : XviD 1.2.1 (UTC 2008-12-04)

    Audio
    ID : 1
    Format : MPEG Audio
    Format version : Version 1
    Format profile : Layer 3
    Mode : Joint stereo
    Mode extension : MS Stereo
    Codec ID : 55
    Codec ID/Hint : MP3
    Duration : 1h 17mn
    Bit rate mode : Variable
    Bit rate : 134 Kbps
    Channel(s) : 2 channels
    *****************************************************************








    A film rövid tartalma:
    Öt ember teljesen átlagos módon kezdi a munkanapját Philadelphiában. Beszállnak egy irodaház liftjébe. Teljesen ismeretlenek egymás számára. Csak pár másodpercet szándékoznak a többiek társaságában tölteni, ám a fülke hirtelen elakad. A sors közbeszólt. Feltárulnak a féltve őrzött titkok, és mindenkinek felelnie kell bűneiért.
    A kezdetben csupán kényelmetlen helyzet lassan, de biztosan egyre rémületesebbé válik. Szörnyű dolgok történnek mindegyikükkel, és egyre valószínűbb, hogy az eseményeket közülük valaki irányítja. Végül kiderül az elképesztő igazság: egyikük maga az Ördög. Miközben kívülről hasztalan próbálják kiszabadítani őket, a lift utasai rájönnek, csak akkor élhetik túl ezt a napot, ha szembeszállnak a gonosszal.
    ---------------------------------------------------------------------








    NÉZD MEG A TÖBBI FELTÖLTÉSEMET IS!


    Smile

    suzy78
    Leskelődő
    Leskelődő

    Hozzászólások száma : 3
    Join date : 2012. Mar. 25.

    Re: Ördög (Devil) 2010.| Szinkronos amerikai horror| DVDRiP.| data.hu

    Témanyitás  suzy78 on Csüt. Ápr. 12, 2012 5:35 pm

    köszi

    connorx72
    Leskelődő
    Leskelődő

    Hozzászólások száma : 7
    Join date : 2012. Apr. 13.

    Re: Ördög (Devil) 2010.| Szinkronos amerikai horror| DVDRiP.| data.hu

    Témanyitás  connorx72 on Pént. Ápr. 13, 2012 2:54 pm

    Köszi Smile

    gezusdurex
    Töltögető
    Töltögető

    Hozzászólások száma : 12
    Join date : 2012. Feb. 15.

    Ördög

    Témanyitás  gezusdurex on Pént. Ápr. 20, 2012 1:23 pm

    thx

    Sponsored content

    Re: Ördög (Devil) 2010.| Szinkronos amerikai horror| DVDRiP.| data.hu

    Témanyitás  Sponsored content


      Pontos idő: Szer. Máj. 24, 2017 5:23 am