Szólj hozzá a témához és letöltheted a tartalmat!

Prémium előfizetésel több szálon, várakozás nélküli letöltés, nagy sebességgel!


    Denzel Washington Filmek.

    Share

    Admin
    Admin
    Admin

    Hozzászólások száma : 493
    Join date : 2012. Feb. 06.
    Age : 68
    Tartózkodási hely : Bp.

    Denzel Washington Filmek.

    Témanyitás  Admin on Hétf. Márc. 19, 2012 7:20 pm

    Denzel Washington

    Denzel Washington (1954. december 28., Mount Vernon, New York állam, Amerikai Egyesült Államok – ) Oscar-díjas amerikai színész, rendező, producer.



    Élete

    Az érettségit követően újságírást tanult a Fordham Egyetemen, de miután diplomázott, a színészet felé kacsintgatott és San Franciscóba ment az Amerikai Színház Konzervatóriumba. Egy év elteltével elhagyta az intézetet, hogy színészként próbáljon szerencsét. Kisugárzása és megjelenése révén nem okozott gondot, hogy televíziós produkciókban kapjon szerepeket. Első nagyvásznas fellépésén George Segal volt a partnere. A nyolcvanas években párhuzamosan dolgozott televízióban és vásznon. Majd hat évig játszotta az NBC sorozatában a St. Elsewhere-ben Dr. Chandler szerepét. Első Oscar-jelölését 1987-ben a Kiálts szabadságért! című filmért kapta, 1989-ben pedig megérdemelt Arany Glóbusz-t és Oscar-díjat nyert Az 54. hadtest című filmbeli alakításáért. A szökött rabszolga szerep után a kilencvenes években több nagy kasszasikerben vállalt szerepet: előbb a Pelikán Ügyirat (1993) című John Grisham adaptációban a visszatérő Julia Roberts mellett ügyvédet játszott, majd az Utolsó esélyben (1995) Gene Hackmannel egy tengeralattjáró irányításáért küzdöttek, végül a Bátrak igazságában (1996) Meg Ryan halála után nyomozott katonatisztként. Egyik legnagyobb alakítását 1992-ben a Malcolm X-ben nyújtotta. A kilencvenes években különösen szerencsésen válogatta szerepeit. 1993-ban eljátszotta a Philadelphia – Az érinthetetlen c. film egyik főszerepét: egy AIDS-es homoszexuálist képvisel ügyvédként egy munkaügyi diszkriminációs perben. A Jonathan Demme rendezte filmmel Tom Hanks megszerezte első Oscar-díját (ő alakította az AIDS-es homoszexuálist), de Washington alakítását is dicsérték a kritikusok.

    A kilencvenes évek második felében elsősorban akciófilmekben és krimikben játszott kisebb (Letaszítva, Kék ördög, Sid 6.7) és nagyobb (A csontember, Szükségállapot) sikerrel. Emellett a Kinek a papné-ben (1996) Whitney Houstonnak segített rendbe szedni magánéletét, mint angyal, valamint az egykori bokszvilágbajnok Hurrikán életét vitte vászonra a Hurrikán-ban (1999). Utóbbiért Arany Glóbuszt kapott, de az Oscarról lemaradt. A film elég nagy botrányt kavart, mert máig nem derült ki, hogy az életfogytiglani börtönbüntetésre ítélt ex-világbajnok öklöző tényleg ártatlan-e, ahogy ő mondja, vagy valóban vannak a múltjának sötét foltjai.

    Márkajegyének tekinthető, hogy gyakran alakít valós karaktereket: Rubin Cartert a Hurrikánban, Malcolm X-et a Malcolm X-ben, Herman Boone-t az Emlékezz a titánokra! című filmben. Megszállottságára jellemző, hogy a Hurrikán címszerepéért egy évig bokszedzéseket vett a tréner Terry Clybon-tól.

    2000 után se választott rossz szerepeket, hiszen a Kiképzés című filmben megkapta az Oscart és Arany Glóbuszra is jelölték.


    Denzel Washington Oscar-díjas alakítása a Kiképzés című filmből

    Ezután elvállalt olyan szerepeket, mint a Végszükség, amelyben elkeseredetten küzd fia életéért. Rendezőként is megmutatta milyen jó, hiszen az Antwone Fisher történetében washingtoni filmkritikusok díjával jutalmazták, mint rendezőt. Aztán jött több akciófilm, mint az Időzavarban, A tűzben edzett férfi, A mandzsúriai jelölt, A belső ember és a Déjà Vu.

    Nemrég forgatták az Amerikai Gengsztert, amiben egy drogbárót játszik, ellenfele Russell Crowe a filmben, aki megpróbálja elkapni őt.

    Magánélete

    1982 óta él boldog házasságban Pauletta Pearsonnal, akitől négy gyermeke született.

    Filmjei





    A hozzászólást Admin összesen 1 alkalommal szerkesztette, legutóbb Vas. Júl. 22, 2012 8:59 pm-kor.

    Admin
    Admin
    Admin

    Hozzászólások száma : 493
    Join date : 2012. Feb. 06.
    Age : 68
    Tartózkodási hely : Bp.

    A mandzsúriai jelölt 2004. | Szinkronizált amerikai filmdráma| DVDRip| data.hu

    Témanyitás  Admin on Kedd. Márc. 20, 2012 5:30 pm








    A mandzsúriai jelölt 2004.

    színes, magyarul beszélő, amerikai filmdráma, 129 perc, 2004



    Rendezte:
    onathan Demme

    szereplő(k):
    Denzel Washington (Ben Marco)
    Meryl Streep (Eleanor Shaw)
    Liev Schreiber (Raymond Shaw)
    Jon Voight (Thomas Jordan szenátor)
    Bruno Ganz (Delp)
    Kimberly Elise (Rosie)
    Jeffrey Wright (Al Melvin)
    Anthony Mackie (Robert Baker)
    Pablo Schreiber (Eddie Ingram)
    Tim Artz (Jameson)
    Vera Farmiga (Jocelyne Jordan)

    Relase:
    "A.mandzsuriai.jelolt.DVDRip.XviD.HunDub-By"
    *****************************************************************
    Codec ID : XVID
    Codec ID/Hint : XviD
    Duration : 2h 4mn
    Bit rate : 1 362 Kbps
    Width : 640 pixels
    Height : 384 pixels
    Display aspect ratio : 1.667
    Frame rate : 25.000 fps
    Color space : YUV
    Chroma subsampling : 4:2:0
    Bit depth : 8 bits
    Scan type : Progressive
    Compression mode : Lossy
    Bits/(Pixel*Frame) : 0.222
    Stream size : 1.19 GiB (87%)
    Writing library : XviD 1.0.0 (UTC 2004-05-09)

    Audio
    ID : 1
    Format : AC-3
    Format/Info : Audio Coding 3
    Format profile : Dolby Digital
    Mode extension : CM (complete main)
    Codec ID : 2000
    Duration : 2h 4mn
    Bit rate mode : Constant
    Bit rate : 192 Kbps
    Channel(s) : 2 channels
    *****************************************************************






    A film rövid tartalma:
    A világtól elzárva, a Massachusetts állam partjainál fekvő kis szigeten lévő elmegyógyintézetben tartják fogva az Egyesült Államok legveszedelmesebb elmebeteg bűnözőit. Amikor az ötvenes években a szigorúan őrzött intézményből megmagyarázhatatlan módon megszökik egy gyilkosságért elítélt nő, az igazgató, Dr. Cawley kénytelen külső segítséget kérni. Két rendőrbíró, Teddy Daniels és Chuck Aule utazik a szigetre, hogy kiderítse, mi történt, és megtalálja a szökevényt. Danielsnek nemcsak a munkáját hátráltató pszichiáterrel, hanem a saját démonaival is meg kell küzdenie.

    Díjak és jelölések:
    BAFTA-díj (2005) - Legjobb női mellékszereplő jelölés: Meryl Streep
    Golden Globe díj (2005) - Legjobb női mellékszereplő jelölés: Meryl Streep








    Admin
    Admin
    Admin

    Hozzászólások száma : 493
    Join date : 2012. Feb. 06.
    Age : 68
    Tartózkodási hely : Bp.

    Antwone Fisher története 2002. | Szinkronizált amerikai életrajzi dráma| BDRip| data.hu

    Témanyitás  Admin on Kedd. Márc. 20, 2012 5:36 pm









    Antwone Fisher története 2002.


    színes,szinkronizált amerikai életrajzi dráma, 120 perc, 2002
    BDRip.Hundub.
    1,68 GB


    forgatókönyvíró: Antwone Fisher


    Rendezte:Denzel Washington


    szereplő(k):
    Denzel Washington (Dr. Jerome Davenport)
    Derek Luke (Antwone Fisher)
    Joy Bryant (Cheryl)
    Malcolm David Kelley (Antwone Fisher hét évesen)
    Salli Richardson (Berta)
    Earl Billings (James Elkins)
    Yolonda Ross (Elaine)
    Stephen Snedden (Berkley)
    Kevin Connolly (Slim)
    Kente Scott (Kansas City)

    Relase:
    "Antwone.Fisher.tortenete.2002.BDRip.XviD.Hun-HDTV"


    Trailer:

    Kód:
    http://www.youtube.com/watch?v=d7zXnqsFM-s

    *****************************************************************
    Runtime.............: 01:55:18 Min.
    Video Codec.........: XviD
    Video Bitrate.......: 1890 kb/s 2pass
    Video Resolution....: 720x304
    Video Fps...........: 25.000 fps
    Bits/(Pixel*Frame)..: 0.345



    Audio Format........: ac3
    Audio Bitrate.......: 192 kb/s (2 ch) CBR 48000 Hz
    Audio Language......: Hungarian˙˙
    Subtitle............: no
    *****************************************************************








    A film rövid tartalma:
    Antwone Fisher (Derek Luke), a haditengerészet katonája rendszeresen bajba kerül féktelen természete miatt. Miután egy semmiség miatt ismét verekedésbe keveredik, elküldik Dr. Davenporthoz (Denzel Washington), a sereg pszichiáterhez, aki apránként elnyeri a bizalmát. Miután megismeri szörnyű gyerekkorát, úgy gondolja, megfejtette a fiú agresszivitásának okait. Amikor azonban Fisher újra fogdába kerül kénytelen ráébredni, hogy még csak a felszínt látta, a srácnak jobban szüksége van rá, mint képzelte.







    NÉZD MEG A TÖBBI FELTÖLTÉSEMET IS!


    Admin
    Admin
    Admin

    Hozzászólások száma : 493
    Join date : 2012. Feb. 06.
    Age : 68
    Tartózkodási hely : Bp.

    A tűzben edzett férfi (Man on Fire) 2004.|Szinkronizált amerikai akcióthriller|BDRip|data.hu

    Témanyitás  Admin on Kedd. Márc. 20, 2012 5:50 pm










    A tűzben edzett férfi (Man on Fire) 2004.


    színes, magyarul beszélő, amerikai-angol-mexikói akcióthriller, 146 perc, 2004


    Rendezte:
    Tony Scott


    szereplő(k):
    Denzel Washington (Creasy)
    Christopher Walken (Rayburn)
    Dakota Fanning (Pita)
    Marc Anthony (Samuel)
    Radha Mitchell (Lisa)
    Giancarlo Giannini (Manzano)
    Mickey Rourke (Jordan)
    Gero Camilo (Aurelio Sanchez)
    Mario Zaragoza (Jorge Ramirez)

    Relase:
    "A.tuzben.edzett.ferfi.2004.BRRip.Xvid.Hun.AC3.5.1-FeeNoocchi"


    Trailer:

    Kód:
    http://www.youtube.com/watch?v=g4kLizDXLY0

    *****************************************************************
    Codec ID : XVID
    Codec ID/Hint : XviD
    Duration : 2h 26mn
    Bit rate : 1 997 Kbps
    Width : 720 pixels
    Height : 288 pixels
    Display aspect ratio : 2.500
    Frame rate : 23.976 fps
    Color space : YUV
    Chroma subsampling : 4:2:0
    Bit depth : 8 bits
    Scan type : Progressive
    Compression mode : Lossy
    Bits/(Pixel*Frame) : 0.402
    Stream size : 2.04 GiB (81%)
    Writing library : XviD 1.2.1 (UTC 2008-12-04)

    Audio
    ID : 1
    Format : AC-3
    Format/Info : Audio Coding 3
    Mode extension : CM (complete main)
    Codec ID : 2000
    Duration : 2h 49mn
    Bit rate mode : Constant
    Bit rate : 448 Kbps
    Channel(s) : 6 channels
    *****************************************************************








    A film rövid tartalma:
    Gyerekrablási hullám söpör végig Mexikón. John Creasy, a kiégett, valamikori CIA-ügynök és bérgyilkos a barátja rábeszélésére elvállalja Samuel Ramos iparmágnás és felesége gyermekének, a kilencéves Pitának a védelmét. Creasy nehezen tolerálja a koraérett kislányt, és vele az és életét firtató kényelmetlen kérdéseket, amelyekkel Pita állandóan zaklatja. De a férfiről lassan lemállik az áthatolhatatlannak látszó védőburok, és megnyílik a kislány előtt. Amikor a kis Pitát elrabolják, a férfi a saját kezébe veszi a nyomozást.







    NÉZD MEG A TÖBBI FELTÖLTÉSEMET IS!


    Admin
    Admin
    Admin

    Hozzászólások száma : 493
    Join date : 2012. Feb. 06.
    Age : 68
    Tartózkodási hely : Bp.

    Amerikai gengszter 2007. | Szinkronizált amerikai krimi| DVDRip | data.hu

    Témanyitás  Admin on Kedd. Márc. 20, 2012 6:08 pm








    Amerikai gengszter 2007. - Datán.


    színes, magyarul beszélő, amerikai krimi, 157 perc, 2007.


    Rendezte:
    Ridley Scott

    szereplő(k):
    Denzel Washington (Frank Lucas)
    Russell Crowe (Richie Roberts)
    Cuba Gooding Jr. (Nicky Barnes)
    Josh Brolin (Trupo)
    RZA (Jones)
    Ruby Dee (Frank Lucas anyja)
    John Ortiz (Javy Rivera)
    Lymari Nadal (Eva)
    Yul Vazquez (Alphonse Abruzzo)

    Relase:

    "Amerikai.Gengszter.2007.DVDRip.Xvid.HunDub-BD"

    *****************************************************************
    Format : AVC
    Format/Info : Advanced Video Codec
    Format profile : Baseline@L1.3
    Format settings, CABAC : No
    Format settings, ReFrames : 1 frame
    Codec ID : H264
    Duration : 1h 16mn
    Bit rate : 880 Kbps
    Width : 688 pixels
    Height : 376 pixels
    Display aspect ratio : 16:9
    Frame rate : 25.000 fps
    Color space : YUV
    Chroma subsampling : 4:2:0
    Bit depth : 8 bits
    Scan type : Progressive
    Bits/(Pixel*Frame) : 0.136
    Stream size : 480 MiB (69%)

    Audio
    ID : 1
    Format : AC-3
    Format/Info : Audio Coding 3
    Mode extension : CM (complete main)
    Codec ID : 2000
    Duration : 1h 16mn
    Bit rate mode : Constant
    Bit rate : 384 Kbps
    Channel(s) : 6 channels
    *****************************************************************










    A film rövid tartalma:
    Frank Lucasra nem figyelt fel senki, míg a belváros egyik fekete főgengszterének hallgatag sofőrje volt. Ám amikor főnöke váratlanul meghal, Frank kihasználja a hatalmi struktúrában keletkezett rést, és felépíti saját birodalmát, megteremti az Amerikai Álom saját személyére szabott verzióját. Zsenialitásának és szigorú üzleti etikájának köszönhetően ő lesz a belvárosi drogkereskedelem ura, tisztább és olcsóbb anyaggal árasztja el az utcákat. Lucas kijátssza a vezető szindikátusokat, és nem csak a megvesztegetések jól kiépített hálózatán keresztül uralja a várost, de ő lesz a legális társasági élet egyik szupersztárja is.

    Richie Roberts a becsületes zsaru, akit a társai kinéznek maguk közül. Elég közel van az utcákhoz, hogy érezze a hatalmi viszonyok elmozdulását a kábítószeres alvilágban. Roberts meggyőződése, hogy valaki az ismert maffiacsaládok fölé került, és gyanítani kezdi, hogy egy fekete játékos bukkant fel a semmiből, és egyenesen a csúcsra tör.

    Lucas és Roberts is szigorú erkölcsi kódex szerint él, ez különbözteti meg őket társaiktól, ettől lesznek mindketten magányos harcosok a törvény két oldalán. A két férfi sorsa összefonódik, ahogy egyre közeleg a leszámolás perce, amelyből csak az egyikük kerülhet ki győztesen.

    Díjak és jelölések:
    BAFTA-díj (2008) - Legjobb film jelölés: Brian Grazer, Ridley Scott
    BAFTA-díj (2008) - Legjobb operatőr jelölés: Harris Savides
    BAFTA-díj (2008) - Legjobb eredeti forgatókönyv jelölés: Steven Zaillian
    BAFTA-díj (2008) - Legjobb vágás jelölés: Pietro Scalia
    BAFTA-díj (2008) - Legjobb filmzene jelölés: Marc Streitenfeld
    Golden Globe díj (2008) - Legjobb rendező jelölés: Ridley Scott
    Golden Globe díj (2008) - Legjobb színész - drámai kategória jelölés: Denzel Washington
    Golden Globe díj (2008) - Legjobb film - drámai kategória jelölés
    Oscar-díj (2008) - Legjobb női mellékszereplő jelölés: Ruby Dee
    Oscar-díj (2008) - Legjobb látványtervezés jelölés
    ---------------------------------------------------------------------








    NÉZD MEG A TÖBBI FELTÖLTÉSEMET IS!


    janos79
    Leskelődő
    Leskelődő

    Hozzászólások száma : 3
    Join date : 2012. Mar. 20.

    Re: Denzel Washington Filmek.

    Témanyitás  janos79 on Kedd. Márc. 20, 2012 6:10 pm

    Köszi feltöltést!

    Admin
    Admin
    Admin

    Hozzászólások száma : 493
    Join date : 2012. Feb. 06.
    Age : 68
    Tartózkodási hely : Bp.

    Az utolsó esély 1995. | Szinkronizált amerikai háborús akciófilm| BRRiP| data.hu

    Témanyitás  Admin on Kedd. Márc. 20, 2012 6:43 pm






    Az utolsó esély 1995.

    színes, magyarul beszélő, amerikai akciófilm, 111 perc, 1995



    Rendezte:
    Tony Scott

    szereplő(k):
    Gene Hackman (Frank Ramsey kapitány)
    Denzel Washington (Ron Hunter hadnagy)
    Viggo Mortensen (Peter Ince)
    Matt Craven (Roy Zimmer)
    James Gandolfini (Bobby Dougherty)
    Rocky Carroll (Darik Westergard)
    Steve Zahn (William Barnes)
    George Dzundza (Parancsnok)
    Eric Bruskotter (Bennefield)

    Relase:
    "Crimson.Tide.1995.HUN.BRRiP.XviD-BeNeTT"
    *****************************************************************
    Codec ID : XVID
    Codec ID/Hint : XviD
    Duration : 1h 55mn
    Bit rate : 1 701 Kbps
    Width : 720 pixels
    Height : 304 pixels
    Display aspect ratio : 2.35:1
    Frame rate : 23.976 fps
    Color space : YUV
    Chroma subsampling : 4:2:0
    Bit depth : 8 bits
    Scan type : Progressive
    Compression mode : Lossy
    Bits/(Pixel*Frame) : 0.324
    Stream size : 1.38 GiB (88%)
    Writing library : XviD 1.2.1 (UTC 2008-12-04)

    Audio
    ID : 1
    Format : AC-3
    Format/Info : Audio Coding 3
    Mode extension : CM (complete main)
    Codec ID : 2000
    Duration : 1h 55mn
    Bit rate mode : Constant
    Bit rate : 224 Kbps
    Channel(s) : 2 channels
    *****************************************************************






    A film rövid tartalma:
    Egy orosz nacionalista csoport átveszi a hatalmat az egyik nukleáris rakétabázison, s ezzel a világ a katasztrófa szélére sodródik. A USS Alabama tengeralattjáró épp orosz vizeken cirkál, és elegendő tűzerővel rendelkezik a harmadik világháború kirobbantásához. A bekövetkező zűrzavarban két tengerésztiszt, Frank Ramsey (Gene Hackman) kapitány és másodtisztje, Ron Hunter (Denzel Washington) hadnagy csap össze. Kettőjük küzdelme az egész világ sorsára kihat: Hunter ragaszkodása a szabályokhoz gátat szab Ramsey agresszív természetének. Ebben az erőpróbában a legénység lázadásra készül.

    Díjak és jelölések:
    Oscar-díj (1996) - Legjobb vágás jelölés: Chris Lebenzon
    Oscar-díj (1996) - Legjobb hangvágás jelölés
    Oscar-díj (1996) - Legjobb hangkeverés jelölés

    NAGYON NAGY FILM!







    Admin
    Admin
    Admin

    Hozzászólások száma : 493
    Join date : 2012. Feb. 06.
    Age : 68
    Tartózkodási hely : Bp.

    Deja Vu 2006. | Szinkronizált amerikai thriller| DVDrip| data.hu

    Témanyitás  Admin on Kedd. Márc. 20, 2012 6:54 pm







    Deja Vu 2006.

    színes, magyarul beszélő, amerikai thriller, 128 perc, 2006



    Rendezte:
    Tony Scott

    szereplő(k):
    Denzel Washington (Doug Carlin)
    Val Kilmer (Pryzwarra ügynök)
    Adam Goldberg (Denny)
    James Caviezel (Oerstadt)
    Bruce Greenwood (Jack McCready)
    Enrique Castillo (Claire apja)
    Paula Patton (Claire Kuchever)

    Relase:
    "Deja.vu.2006.DVDrip.XViD.HunDub-DAP"
    *****************************************************************
    Codec ID : XVID
    Codec ID/Hint : XviD
    Duration : 1h 1mn
    Bit rate : 1 209 Kbps
    Width : 640 pixels
    Height : 256 pixels
    Display aspect ratio : 2.500
    Frame rate : 25.000 fps
    Color space : YUV
    Chroma subsampling : 4:2:0
    Bit depth : 8 bits
    Scan type : Progressive
    Compression mode : Lossy
    Bits/(Pixel*Frame) : 0.295
    Stream size : 532 MiB (76%)
    Writing library : Lavc51.44.0

    Audio
    ID : 1
    Format : AC-3
    Format/Info : Audio Coding 3
    Mode extension : CM (complete main)
    Codec ID : 2000
    Duration : 1h 1mn
    Bit rate mode : Constant
    Bit rate : 384 Kbps
    Channel(s) : 6 channels
    *****************************************************************






    A film rövid tartalma:
    Mindenki megtapasztalta már, milyen az, amikor úgy érzi, hogy a vele zajló eseményeket egyszer már átélte. Doug Carlin ügynököt rutinnyomozás közben ez a deja vu vezeti egy titokzatos bűncselekmény nyomára. A New Orleans-i kompon történt robbanás ügyében nyomoz, amikor hatalmába keríti az érzés. Carlin egyre biztosabb abban, hogy a lányt, akinek a holttestét a nyomozás során megtalálták, látta már valahol és abban is, hogy a komp nem egyszerű baleset okán vált a lángok martalékává. A szigorúan titkos katonai eszköz segítségével próbálja elkapni a tetteseket.









    Admin
    Admin
    Admin

    Hozzászólások száma : 493
    Join date : 2012. Feb. 06.
    Age : 68
    Tartózkodási hely : Bp.

    Időzavarban (Out of Time) 2003. | Szinkronizált amerikai krimi| DVDrip| data.hu

    Témanyitás  Admin on Kedd. Márc. 20, 2012 7:00 pm






    Időzavarban (Out of Time) 2003.

    színes, magyarul beszélő, amerikai krimi, 105 perc, 2003


    Rendezte:
    Carl Franklin

    szereplő(k):
    Denzel Washington (Matt Lee Whitlock)
    Eva Mendes (Alex Diaz Whitlock)
    Sanaa Lathan (Anne Merai Harrison)
    John Billingsley (Chae)
    Dean Cain (Chris Harrison)
    Robert Baker (Tony Dalton)
    Evelyn Brooks (Judy anyja)
    Nora Dunn (Dr. Donovan)
    James Murtaugh (Dr. Frieland)
    Jesse Beaton (Ramona)
    Terry Loughlin (Stark ügynök)
    Parris Buckner (Dr. Shider)
    Sharlene Garcia (Sharlene)

    Relase:
    "Idozavarban.DVDRip.XviD.HUN-iNSANE"
    *****************************************************************
    Codec ID : XVID
    Codec ID/Hint : XviD
    Duration : 52mn 41s
    Bit rate : 1 460 Kbps
    Width : 640 pixels
    Height : 272 pixels
    Display aspect ratio : 2.35:1
    Frame rate : 25.000 fps
    Color space : YUV
    Chroma subsampling : 4:2:0
    Bit depth : 8 bits
    Scan type : Progressive
    Compression mode : Lossy
    Bits/(Pixel*Frame) : 0.336
    Stream size : 550 MiB (79%)
    Writing library : XviD 1.2.0.dev47 (UTC 2006-11-01)

    Audio
    ID : 1
    Format : AC-3
    Format/Info : Audio Coding 3
    Mode extension : CM (complete main)
    Codec ID : 2000
    Duration : 52mn 41s
    Bit rate mode : Constant
    Bit rate : 384 Kbps
    Channel(s) : 6 channels
    *****************************************************************






    A film rövid tartalma:
    Matt az egyik floridai kisváros rendőrfőnöke. A fekete bőrű zsaru keményen dolgozik, a munkatársai és barátai tisztelik, a városka közössége szereti. Banyan Keyt valósággal sokkolja a brutális, kettős emberölés híre, melynek egyik áldozata a seriff szeretője. Ahogy egyre több részletére derül fény a gyilkossági ügynek, minden bizonyíték Mattra tereli a figyelmet. A zsaru versenyt fut az idővel: meg kell oldania ügyet, hogy tisztázni tudja a nevét, visszaszerezze becsületét és kiderítse a szörnyű igazságot. A helyzetet bonyolítja, hogy Matt elhidegült felesége szakértőként érdekelt az ügyben.










    Admin
    Admin
    Admin

    Hozzászólások száma : 493
    Join date : 2012. Feb. 06.
    Age : 68
    Tartózkodási hely : Bp.

    A belső ember (Inside Man) 2006. | Szinkronizált amerikai akcióthriller| DVDrip| data.hu

    Témanyitás  Admin on Szer. Márc. 21, 2012 7:53 pm








    A belső ember (Inside Man) 2006.

    színes, magyarul beszélő, amerikai akcióthriller, 130 perc, 2006


    Rendezte:
    Spike Lee

    szereplő(k):
    Denzel Washington (Keith Frazier)
    Clive Owen (Dalton Russell)
    Jodie Foster (Madeliene White)
    Ashlie Atkinson (Burke)
    Chiwetel Ejiofor (Bill Mitchell detektív)
    Jonnie Brown (Richard Payne)
    Willem Dafoe (Darius kapitány)
    Peter Frechette (Peter Hammond)
    Christopher Plummer (Arthur Case)

    Relase:
    "A.Belso.Ember.2006.HUN.DVDRiP.XviD-seven"
    *****************************************************************
    Codec ID : XVID
    Codec ID/Hint : XviD
    Duration : 1h 11mn
    Bit rate : 970 Kbps
    Width : 688 pixels
    Height : 288 pixels
    Display aspect ratio : 2.40:1
    Frame rate : 25.000 fps
    Color space : YUV
    Chroma subsampling : 4:2:0
    Bit depth : 8 bits
    Scan type : Progressive
    Compression mode : Lossy
    Bits/(Pixel*Frame) : 0.196
    Stream size : 498 MiB (71%)
    Writing library : XviD 1.1.2 (UTC 2006-11-01)

    Audio
    ID : 1
    Format : AC-3
    Format/Info : Audio Coding 3
    Mode extension : CM (complete main)
    Codec ID : 2000
    Duration : 1h 11mn
    Bit rate mode : Constant
    Bit rate : 384 Kbps
    Channel(s) : 6 channels
    *****************************************************************








    A film rövid tartalma:
    A rejtélyes Dalton kiagyalja a tökéletes bankrablás tervét, és merész akciója során több tucat embert ejt túszul az épületben. Frazier, a kőkemény nyomozó kapja a feladatot, hogy tárgyaljon a zseniális bűnözővel. Ahogy a veszedelmes macska-egér játék kezd kibontakozni, Frazier gyanút fog, hogy ebben az ügyben talán nem minden az, aminek látszik. Ráadásul felbukkan a színen a felsőbb érdekeket képviselő Madaline, aki kiszámíthatatlanságával még tovább bonyolítja az amúgy is robbanásveszélyes helyzetet.









    Admin
    Admin
    Admin

    Hozzászólások száma : 493
    Join date : 2012. Feb. 06.
    Age : 68
    Tartózkodási hely : Bp.

    Emlékezz a titánokra! 2000. | Szinkronizált amerikai akcióthriller| DVDrip| data.hu

    Témanyitás  Admin on Szer. Márc. 21, 2012 8:02 pm








    Emlékezz a titánokra! 2000.

    színes, magyarul beszélő, amerikai filmdráma, 113 perc, 2000


    Rendezte:
    Boaz Yakin

    szereplő(k):
    Denzel Washington (Herman Boone edző)
    Will Patton (Bill Yoast edző)
    Kate Bosworth (Emma Hoyt)
    Wood Harris (Julius "Big Ju" Campbell)
    Ryan Hurst (Gerry Bertier)
    Donald Adeosun Faison (Petey Jones)
    Ethan Suplee (Louie Lastik)
    Donald Faison (Petey)
    Craig Kirkwood (Jerry Harris)

    Relase:
    "Emlekezz.A.Titanokra.2000.DVDRip.XviD.Hun-pixi"
    *****************************************************************
    Codec ID : XVID
    Codec ID/Hint : XviD
    Duration : 1h 48mn
    Bit rate : 762 Kbps
    Width : 576 pixels
    Height : 240 pixels
    Display aspect ratio : 2.40:1
    Frame rate : 25.000 fps
    Color space : YUV
    Chroma subsampling : 4:2:0
    Bit depth : 8 bits
    Scan type : Progressive
    Compression mode : Lossy
    Bits/(Pixel*Frame) : 0.221
    Stream size : 593 MiB (85%)
    Writing library : XviD 1.2.0.dev47 (UTC 2006-11-01)

    Audio
    ID : 1
    Format : MPEG Audio
    Format version : Version 1
    Format profile : Layer 3
    Mode : Joint stereo
    Mode extension : MS Stereo
    Codec ID : 55
    Codec ID/Hint : MP3
    Duration : 1h 48mn
    Bit rate mode : Constant
    Bit rate : 128 Kbps
    Channel(s) : 2 channels
    *****************************************************************






    A film rövid tartalma:
    Boone (Denzel Washington) kiváló amerikai futballedző hírében álló fekete tanárember. 1971-ben a virginiai Alexandria városában megkezdik a faji elkülönítés felszámolását, amelynek jegyében összevonnak két iskolát. Az amúgy is meglévő feszültségeket tetézik Boone kinevezésével az egységes csapat élére. A fehér fiúk korábban sorra nyerték a meccseket, nehezen fogadják el az új színesbőrű edző utasításait. Az edzőtáborok eleinte botrányos verekedésektől hangosak, de a srácok lassan rájönnek, hogy az egymás elleni gyűlölet felesleges. Jól szerepelnek a bajnokságban, de a legfontosabb meccs előtt a kapitány autóbalesetet szenved. A Titánok csapatának most igazi egységet kell mutatnia.










    Admin
    Admin
    Admin

    Hozzászólások száma : 493
    Join date : 2012. Feb. 06.
    Age : 68
    Tartózkodási hely : Bp.

    Az 54. hadtest (Glory) 1989. | Szinkronizált amerikai történelmi| DVDrip| data.hu

    Témanyitás  Admin on Szer. Márc. 21, 2012 8:15 pm








    Az 54. hadtest (Glory) 1989.

    színes, magyarul beszélő, amerikai történelmi kalandfilm, 118 perc, 1989


    Rendezte:
    Edward Zwick

    szereplő(k):
    Matthew Broderick (Robert Gould Shaw ezredes)
    Denzel Washington (Trip)
    Cary Elwes (Cabot Forbes őrnagy)
    Morgan Freeman (John Rawlins)
    John Finn (Mulcahy)
    Jay O. Sanders (George Crockett Strong generális)
    Alan North (John Albion Andrew)
    Bob Gunton (Harker generális)
    Cliff De Young (James M. Montgomery ezredes)

    Relase:
    "Glory.1989.HUN.DVDRip.XviD-uzoli"
    *****************************************************************
    Codec ID : XVID
    Codec ID/Hint : XviD
    Duration : 58mn 28s
    Bit rate : 1 282 Kbps
    Width : 640 pixels
    Height : 352 pixels
    Display aspect ratio : 16:9
    Frame rate : 25.000 fps
    Color space : YUV
    Chroma subsampling : 4:2:0
    Bit depth : 8 bits
    Scan type : Progressive
    Compression mode : Lossy
    Bits/(Pixel*Frame) : 0.228
    Stream size : 536 MiB (76%)
    Writing library : XviD 1.2.0.dev47 (UTC 2006-11-01)

    Audio
    ID : 1
    Format : AC-3
    Format/Info : Audio Coding 3
    Mode extension : CM (complete main)
    Codec ID : 2000
    Duration : 58mn 28s
    Bit rate mode : Constant
    Bit rate : 384 Kbps
    Channel(s) : 6 channels
    *****************************************************************








    A film rövid tartalma:
    Dúl a polgárháború Észak-Amerikában. A kékkabátos Robert Gould Shaw ezredest megbízzák, hogy szervezze meg az első feketékből álló egységet. A Massachusetts állambeli önkéntes alakulat, az 54. hadtest katonái szökött rabszolgákból és szabad polgárokból állnak. A fehér nemesi családból származó Shaw elhatározza, hogy az általános vélekedéssel szemben bebizonyítja, a feketékből is lehet jó katonákat faragni. Legfőbb segítőtársa Trip, egy szökött rabszolga, valamint John Rawlins, aki sírásóból lett katona. Lelkesedésük átragad a többiekre is, de vajon elég lesz-e ez a diadalhoz?

    Díjak és jelölések:

    Oscar-díj (1990) - Legjobb operatőr: Freddie Francis
    Oscar-díj (1990) - Legjobb férfi mellékszereplő: Denzel Washington
    Oscar-díj (1990) - Legjobb hangkeverés
    BAFTA-díj (1991) - Legjobb operatőr jelölés: Freddie Francis
    Golden Globe díj (1990) - Legjobb rendező jelölés: Edward Zwick
    Golden Globe díj (1990) - Legjobb férfi mellékszereplő jelölés: Denzel Washington
    Golden Globe díj (1990) - Legjobb film - drámai kategória jelölés
    Golden Globe díj (1990) - Legjobb forgatókönyv jelölés: Kevin Jarre
    Oscar-díj (1990) - Legjobb látványtervezés jelölés: Norman Garwood
    Oscar-díj (1990) - Legjobb vágás jelölés: Steven Rosenblum









    Admin
    Admin
    Admin

    Hozzászólások száma : 493
    Join date : 2012. Feb. 06.
    Age : 68
    Tartózkodási hely : Bp.

    John Q - Végszükség 2002. | Szinkronizált amerikai thriller| DVDrip| data.hu

    Témanyitás  Admin on Szer. Márc. 21, 2012 8:31 pm








    John Q - Végszükség 2002.

    színes, magyarul beszélő, amerikai thriller, 116 perc, 2002


    Rendezte:
    Nick Cassavetes

    szereplő(k):
    Denzel Washington (John Quincy Archibald)
    James Woods (Dr. Raymond Turner)
    Anne Heche (Rebecca Payne)
    Kimberly Elise (Denise Archibald)
    Robert Duvall (Frank Grimes)
    Ray Liotta (Gus Monroe rendőrfőnök)
    Eddie Griffin (Lester)
    Shawn Hatosy (Mitch)
    Obba Babatundé (Moody őrmester)
    Ethan Suplee (Max)
    Heather Wahlquist (Julie)

    Relase:
    "John.Q.2002.HUN.DVDRip.XviD-pocokmaster"
    *****************************************************************
    Codec ID : XVID
    Codec ID/Hint : XviD
    Duration : 1h 51mn
    Bit rate : 1 365 Kbps
    Width : 624 pixels
    Height : 336 pixels
    Display aspect ratio : 1.857
    Frame rate : 25.000 fps
    Color space : YUV
    Chroma subsampling : 4:2:0
    Bit depth : 8 bits
    Scan type : Progressive
    Compression mode : Lossy
    Bits/(Pixel*Frame) : 0.260
    Stream size : 1.06 GiB (78%)
    Writing library : XviD 1.1.2 (UTC 2006-11-01)

    Audio
    ID : 1
    Format : AC-3
    Format/Info : Audio Coding 3
    Mode extension : CM (complete main)
    Codec ID : 2000
    Duration : 1h 51mn
    Bit rate mode : Constant
    Bit rate : 384 Kbps
    Channel(s) : 6 channels
    *****************************************************************






    A film rövid tartalma:
    John Quincy Archibald (Denzel Washington) fia baseballozás közben összeesik. A kórházban kiderül, hogy csak a szívátültetés mentheti meg a gyerek életét, az apa biztosítása azonban nem fedezi a transzplantáció költségeit. Az egyébként becsületes apa elkeseredésében átlép minden határt: túszul ejti a kórház dolgozóit, így kényszeríti az orvosokat a műtét elvégzésére.










    Admin
    Admin
    Admin

    Hozzászólások száma : 493
    Join date : 2012. Feb. 06.
    Age : 68
    Tartózkodási hely : Bp.

    Letaszítva (Fallen) 1998. | Szinkronizált amerikai thriller| DVDrip| data.hu

    Témanyitás  Admin on Szer. Márc. 21, 2012 8:38 pm








    Letaszítva (Fallen) 1998.

    színes, magyarul beszélő, amerikai thriller, 123 perc, 1998


    Rendezte:
    Gregory Hoblit

    szereplő(k):
    Denzel Washington (John Hobbes)
    John Goodman (Jonesy)
    Donald Sutherland (Stanton)
    Embeth Davidtz (Gretta Milano)
    James Gandolfini (Lou)
    Elias Koteas (Edgar Reese)

    Relase:
    "Letaszitva.1998.HDRip.AC3.Xvid.Hun-Daw086"
    *****************************************************************
    Codec ID : XVID
    Codec ID/Hint : XviD
    Duration : 1h 59mn
    Bit rate : 1 979 Kbps
    Width : 720 pixels
    Height : 304 pixels
    Display aspect ratio : 2.35:1
    Frame rate : 25.000 fps
    Color space : YUV
    Chroma subsampling : 4:2:0
    Bit depth : 8 bits
    Scan type : Progressive
    Compression mode : Lossy
    Bits/(Pixel*Frame) : 0.362
    Stream size : 1.65 GiB (83%)
    Writing library : XviD 1.1.2 (UTC 2006-11-01)

    Audio
    ID : 1
    Format : AC-3
    Format/Info : Audio Coding 3
    Mode extension : CM (complete main)
    Codec ID : 2000
    Duration : 1h 59mn
    Bit rate mode : Constant
    Bit rate : 384 Kbps
    Channel(s) : 6 channels
    *****************************************************************






    A film rövid tartalma:
    Lenyűgözően hideg és nyugtalanító képi megoldásaival a műfaj egyik kiemelkedő filmjét láthatjuk. John Hobbes nyomozó és társa, Jonesy fellélegeznek, amikor kivégzik az általuk elfogott démonikus gyilkosságsorozat tettesét. Napokkal később ismerősök és ismeretlen emberek egyaránt azt a dallamot éneklik Hobbesnak cinikusan, amit a halálraítélt dúdolt neki a gázkamrából. A rémtettek ráadásul tovább folytatódnak és kísértetiesen hasonlítanak ez előzőekhez. Ekkor kezdődnek Hobbes lidércnyomásos napjai: egyre több gyanús jel utal arra, hogy neki is köze lehet az újabb gyilkosságokhoz. Az őrjítő jelenség nyomában eljut a fekete mágia tiltott világáig. A nyomozó megismerkedik egy teológiaprofesszorral, aki nemcsak természetfeletti erők hatására gyanakszik, hanem az esetek hátterében magának az ördögnek a jelenlétét véli felfedezni. Hobbes kénytelen szembenézni azzal, hogy az egyetemes gonosz korlátlan és örök. Azazel, a sumér hitvilág bosszúszomjas bukott angyala térhetett vissza az emberi világba: a sorozatgyilkos testéből kiűzve másik lelket kell találnia. A zsaru teste éppen megfelelne erre a célra. Egy egyszerű ember hogyan veheti fel a harcot a természetfeletti hatalmakkal, az arctalan és alaktalan Gonosszal?










    janos79
    Leskelődő
    Leskelődő

    Hozzászólások száma : 3
    Join date : 2012. Mar. 20.

    Re: Denzel Washington Filmek.

    Témanyitás  janos79 on Szer. Márc. 21, 2012 8:39 pm

    Köszike!

    Admin
    Admin
    Admin

    Hozzászólások száma : 493
    Join date : 2012. Feb. 06.
    Age : 68
    Tartózkodási hely : Bp.

    Éli könyve (The Book of Eli) 2010. | Szinkronizált amerikai akciófilm| DVDrip| data.hu

    Témanyitás  Admin on Csüt. Márc. 22, 2012 5:38 pm











    Éli könyve (The Book of Eli) 2010.

    színes, magyarul beszélő, amerikai akciófilm, 118 perc, 2010


    Rendezte:
    Allen Hughes, Albert Hughes

    szereplő(k):
    Denzel Washington (Éli)
    Gary Oldman (Carnegie)
    Jennifer Beals (Claudia)
    Ray Stevenson (Redridge)
    Mila Kunis (Solara)
    Michael Gambon (George)
    Malcolm McDowell (Lombardi)

    Relase:
    "The.Book.of.Eli.2010.HUN.DVDRip.XviD-Baliboy"
    *****************************************************************
    Codec ID : XVID
    Codec ID/Hint : XviD
    Duration : 1h 57mn
    Bit rate : 868 Kbps
    Width : 624 pixels
    Height : 272 pixels
    Display aspect ratio : 2.25:1
    Frame rate : 23.976 fps
    Color space : YUV
    Chroma subsampling : 4:2:0
    Bit depth : 8 bits
    Scan type : Progressive
    Compression mode : Lossy
    Bits/(Pixel*Frame) : 0.213
    Stream size : 730 MiB (66%)
    Writing library : XviD 1.2.1 (UTC 2008-12-04)

    Audio
    ID : 1
    Format : AC-3
    Format/Info : Audio Coding 3
    Mode extension : CM (complete main)
    Codec ID : 2000
    Duration : 1h 57mn
    Bit rate mode : Constant
    Bit rate : 448 Kbps
    Channel(s) : 6 channels
    *****************************************************************






    A film rövid tartalma:
    A Földet atomháború pusztította el. A világvége utáni pusztaságban az erőszak az úr. Éli, a magányos harcos nyugatra akar eljutni, hogy beteljesítse küldetését. Van nála valami, ami értékesebb minden fegyvernél és az élelmiszernél is. Egy könyv utolsó példánya, amely hitet adhat az embereknek, hogy van remény az újjászületésre. Vannak, akik ölni is hajlandóak azért, hogy megszerezzék a Bibliát. Éli a kisvárosban keresztezi a környéket uraló hadúr útját. Carnegie a martalócaival megszállottan kutatja a könyv nyomát, a könyv segítségével akarja kiterjeszteni hatalmát. Az emberiség sorsa Éli kezében van.








    Admin
    Admin
    Admin

    Hozzászólások száma : 493
    Join date : 2012. Feb. 06.
    Age : 68
    Tartózkodási hely : Bp.

    Kiképzés (Training Day) 2001. | Szinkronizált amerikai akcióthriller| DVDrip| data.hu

    Témanyitás  Admin on Csüt. Márc. 22, 2012 5:47 pm











    Kiképzés (Training Day) 2001.

    színes, magyarul beszélő, amerikai-ausztrál akcióthriller, 120 perc, 2001


    Rendezte:
    Antoine Fuqua

    szereplő(k):
    Denzel Washington (Alonzo)
    Ethan Hawke (Jake)
    Eva Mendes (Sara)
    Tom Berenger (Stan Gursky)
    Scott Glenn (Roger)
    Harris Yulin (Doug Rosselli)
    Raymond J. Barry (Lou Jacobs)
    Dr. Dre (Paul)
    Snoop Dogg (Blue)

    Relase:
    "Kikepzes.2001.DVDrip.XViD.HunDub-PREtorians"
    *****************************************************************
    Codec ID : XVID
    Codec ID/Hint : XviD
    Duration : 1h 3mn
    Bit rate : 1 033 Kbps
    Width : 640 pixels
    Height : 272 pixels
    Display aspect ratio : 2.35:1
    Frame rate : 25.000 fps
    Color space : YUV
    Chroma subsampling : 4:2:0
    Bit depth : 8 bits
    Scan type : Progressive
    Compression mode : Lossy
    Bits/(Pixel*Frame) : 0.237
    Stream size : 471 MiB (70%)
    Writing library : Lavc51.21.0

    Audio
    ID : 1
    Format : AC-3
    Format/Info : Audio Coding 3
    Mode extension : CM (complete main)
    Codec ID : 2000
    Duration : 1h 3mn
    Bit rate mode : Constant
    Bit rate : 448 Kbps
    Channel(s) : 6 channels
    *****************************************************************








    A film rövid tartalma:
    Alonzo Harris (Denzel Washington) a kábítószer-osztály nyomozójaként úgy él a körzetében, mint egy középkori hadúr: kegyetlen, igazságtalan, gyors és veszélyes. Hisz benne, hogy ezt a leckét kell továbbadnia a rábízott kezdő rendőrtisztnek (Ethan Hawke) is. Első közösen szolgálatban töltött napjuk alatt megmérkőznek néhány kábítószer-kereskedővel, bonyolult összeesküvést lepleznek le, gyilkosságba keverednek. A Jó és a Rossz egy oldalon harcol. Kezdetben legalább is azt hiszik. Ám nem biztos, hogy végül nem fordulnak egymás ellen.

    Díjak és jelölések:
    MTV Movie Awards (2002) - Legjobb gonosz: Denzel Washington
    Oscar-díj (2002) - Legjobb férfi alakítás: Denzel Washington
    Golden Globe díj (2002) - Legjobb férfi alakítás jelölés: Denzel Washington
    Oscar-díj (2002) - Legjobb férfi mellékszereplő jelölés: Ethan Hawke








    Admin
    Admin
    Admin

    Hozzászólások száma : 493
    Join date : 2012. Feb. 06.
    Age : 68
    Tartózkodási hely : Bp.

    Hurrikán (The Hurricane) 2001. | Szinkronizált amerikai filmdráma| DVDrip| data.hu

    Témanyitás  Admin on Csüt. Márc. 22, 2012 6:02 pm











    Hurrikán (The Hurricane) 2001.

    színes, magyarul beszélő, amerikai filmdráma, 145 perc, 1999


    Rendezte:
    Norman Jewison

    szereplő(k):
    Denzel Washington (Rubin 'Hurricane' Carter)
    Deborah Kara Unger (Lisa Peters)
    Vicellous Reon Shannon (Lesra Martin)
    John Hannah (Terry Swinton)
    Dan Hedaya (Vincent Della Pesca nyomozó)
    Liev Schreiber (Sam Chaiton)
    David Paymer (Myron Bedlock)
    Harris Yulin (Leon Friedman)
    Rod Steiger (H. Lee Sorokin bíró)
    Clancy Brown (Jimmy Williams)

    Relase:
    "The.Hurricane.1999.HUN.DVDRiP.XviD-Hekii"
    *****************************************************************
    Codec ID : XVID
    Codec ID/Hint : XviD
    Duration : 2h 19mn
    Bit rate : 1 201 Kbps
    Width : 672 pixels
    Height : 352 pixels
    Display aspect ratio : 1.899
    Frame rate : 25.000 fps
    Color space : YUV
    Chroma subsampling : 4:2:0
    Bit depth : 8 bits
    Scan type : Progressive
    Compression mode : Lossy
    Bits/(Pixel*Frame) : 0.203
    Stream size : 1.17 GiB (86%)
    Writing library : Lavc51.21.0

    Audio
    ID : 1
    Format : AC-3
    Format/Info : Audio Coding 3
    Format profile : Dolby Digital
    Mode extension : CM (complete main)
    Codec ID : 2000
    Duration : 2h 19mn
    Bit rate mode : Constant
    Bit rate : 192 Kbps
    Channel(s) : 2 channels
    *****************************************************************






    A film rövid tartalma:
    A fekete bőrű Rubin Carter, akit mindenki csak Hurrikánnak becézett, a középsúly egyik kedvence volt a hatvanas évek elején. A bokszkarrierjét azonban kettétörte, hogy gyilkossági ügybe keveredett. A bíróság életfogytiglani börtönre ítélte az ártatlan férfit. A rácsok mögött Hurrikán megírta az önéletrajzát. Évekkel később a könyve Lesra Martin kezébe került. Mivel meg volt győződve az ártatlanságáról, Martin felkarolta az ügyét, és kampányt indított a szabadon bocsátásáért. Carter kezdetben vonakodva fogadta a segítséget, hogy azután újult erővel harcoljon az igazáért.

    Díjak és jelölések:
    Berlini Nemzetközi Filmfesztivál (2000) - Legjobb férfi főszereplő: Denzel Washington
    Berlini Nemzetközi Filmfesztivál (2000) - A Német Művészmozik Szervezetének díja: Norman Jewison
    Golden Globe díj (2000) - Legjobb színész - drámai kategória: Denzel Washington
    Golden Globe díj (2000) - Legjobb rendező jelölés: Norman Jewison
    Oscar-díj (2000) - Legjobb férfi alakítás jelölés: Denzel Washington








    Admin
    Admin
    Admin

    Hozzászólások száma : 493
    Join date : 2012. Feb. 06.
    Age : 68
    Tartózkodási hely : Bp.

    Hajsza a föld alatt 2009. | Szinkronizált amerikai krimi| BDRip| data.hu

    Témanyitás  Admin on Csüt. Márc. 22, 2012 6:12 pm







    Hajsza a föld alatt 2009.

    színes, magyarul beszélő, amerikai-angol krimi, 106 perc, 2009


    Rendezte:
    Tony Scott

    szereplő(k):
    John Travolta (Ryder)
    Denzel Washington (Walter Garber)
    John Turturro (Camonetti)
    Luis Guzmán (Phil Ramos)
    James Gandolfini (Polgármester)
    Robert Vataj (Emri)
    Victor Gojcaj (Bashkin)

    Relase:
    "The.Taking.of.Pelham.1.2.3.2009.HUN.BDRip.Xvid-ZHR"
    *****************************************************************
    Codec ID : XVID
    Codec ID/Hint : XviD
    Duration : 1h 45mn
    Bit rate : 1 359 Kbps
    Width : 656 pixels
    Height : 272 pixels
    Display aspect ratio : 2.40:1
    Frame rate : 23.976 fps
    Color space : YUV
    Chroma subsampling : 4:2:0
    Bit depth : 8 bits
    Scan type : Progressive
    Compression mode : Lossy
    Bits/(Pixel*Frame) : 0.318
    Stream size : 1.01 GiB (75%)
    Writing library : XviD 1.0.3 (UTC 2004-12-20)

    Audio
    ID : 1
    Format : AC-3
    Format/Info : Audio Coding 3
    Mode extension : CM (complete main)
    Codec ID : 2000
    Duration : 1h 45mn
    Bit rate mode : Constant
    Bit rate : 448 Kbps
    Channel(s) : 6 channels
    *****************************************************************






    A film rövid tartalma:
    Walter Garber teljesen hétköznapi fickó, a New York-i metróhálózat egyik forgalomirányítója. Sosem gondolta volna, hogy olyan feladattal kell megbirkóznia, amely a rutinos FBI-nyomozókat is próbára teszi: fegyveresek térítik el az egyik metrószerelvényt. Vezetőjük, az őrült vagy nagyon is okos Ryder azzal fenyegetőzik, hogyha egy órán belül nem fizetnek neki tízmillió dollárt, akkor kivégzi a kocsiban túszul ejtett utasokat. Tizenkilenc ártatlan ember élete a tét, és Ryder csak Garberrel hajlandó tárgyalni. Sőt, neki kell leszállítania a váltságdíjat.









    Admin
    Admin
    Admin

    Hozzászólások száma : 493
    Join date : 2012. Feb. 06.
    Age : 68
    Tartózkodási hely : Bp.

    Száguldó bomba (Unstoppable) 2010. | Szinkronizált amerikai akciófilm| BDRip| data.hu

    Témanyitás  Admin on Csüt. Márc. 22, 2012 6:19 pm







    Száguldó bomba (Unstoppable) 2010.

    színes, magyarul beszélő, amerikai akciófilm, 99 perc, 2010


    Rendezte:
    Tony Scott

    szereplő(k):
    Denzel Washington (Frank Barnes)
    Chris Pine (Will Gordon)
    Rosario Dawson (Connie Hooper)
    Kevin Dunn (Galvin)
    Meagan Tandy (Maya)
    Lew Temple (Ned)
    Ethan Suplee (Dewey)

    szinkronhang:
    Kálid Artúr (Frank Barnes magyar hangja)
    Zámbori Soma (Will Gordon magyar hangja)
    Pikali Gerda (Connie Hooper magyar hangja)
    Bezerédi Zoltán (Galvin magyar hangja)

    Relase:
    "Unstoppable.2010.BDRip.Xvid.Hun-PpB"
    *****************************************************************
    Codec ID : XVID
    Codec ID/Hint : XviD
    Duration : 1h 38mn
    Bit rate : 1 675 Kbps
    Width : 624 pixels
    Height : 256 pixels
    Display aspect ratio : 2.40:1
    Frame rate : 23.976 fps
    Color space : YUV
    Chroma subsampling : 4:2:0
    Bit depth : 8 bits
    Scan type : Progressive
    Compression mode : Lossy
    Bits/(Pixel*Frame) : 0.437
    Stream size : 1.15 GiB (79%)
    Writing library : XviD 1.2.1 (UTC 2008-12-04)

    Audio
    ID : 1
    Format : AC-3
    Format/Info : Audio Coding 3
    Mode extension : CM (complete main)
    Codec ID : 2000
    Duration : 1h 38mn
    Bit rate mode : Constant
    Bit rate : 448 Kbps
    Channel(s) : 6 channels
    *****************************************************************






    A film rövid tartalma:
    Egy tehervonat száguld a végtelen amerikai tájon, tartálykocsijában rendkívül mérgező vegyi anyaggal, ami egy egész várost is elpusztíthat. A halálos teher feltartóztathatatlanul zúdul előre. Minden szakértő tudja, ha nem sikerül időben megállítani a szerelvényt, a következő éles kanyarnál kisiklik, felborul, és a gáz a levegőbe kerül. A vasúttársaság két alkalmazottja, a veterán, nyugdíj előtt álló Frank és a fiatal, kitörési lehetőségeket kereső Will egy másik vonaton a "szökevény" nyomába ered. Sem a főnökeik, sem a katasztrófa-elhárítás vezetői nem bíznak bennük, pedig Frank tapasztalata és Will fiatalos lendülete lehet a megoldás, hogy egy végső, őrült hajszában megmentsék a pusztulásra ítélt várost.

    Díjak és jelölések:
    Oscar-díj (2011) - Legjobb hangvágás jelölés








    Admin
    Admin
    Admin

    Hozzászólások száma : 493
    Join date : 2012. Feb. 06.
    Age : 68
    Tartózkodási hely : Bp.

    Re: Denzel Washington Filmek.

    Témanyitás  Admin on Csüt. Márc. 22, 2012 6:25 pm

    Jó töltögetést és szórakozást kívánok!

    kaparo6
    Leskelődő
    Leskelődő

    Hozzászólások száma : 8
    Join date : 2012. Mar. 18.

    Re: Denzel Washington Filmek.

    Témanyitás  kaparo6 on Csüt. Márc. 22, 2012 8:22 pm

    Köszi!

    ppeti2
    Törzsvendég
    Törzsvendég

    Hozzászólások száma : 51
    Join date : 2012. Feb. 19.

    Re: Denzel Washington Filmek.

    Témanyitás  ppeti2 on Vas. Márc. 25, 2012 7:56 pm

    thx

    gezusdurex
    Töltögető
    Töltögető

    Hozzászólások száma : 12
    Join date : 2012. Feb. 15.

    D.W.

    Témanyitás  gezusdurex on Kedd. Márc. 27, 2012 8:26 am

    thx

    doresz2
    Data - Fájlmegosztó
    Data - Fájlmegosztó

    Hozzászólások száma : 112
    Join date : 2012. Mar. 28.

    Re: Denzel Washington Filmek.

    Témanyitás  doresz2 on Szer. Márc. 28, 2012 6:50 pm

    Köszönöm!

    Sponsored content

    Re: Denzel Washington Filmek.

    Témanyitás  Sponsored content Today at 8:51 am


      Pontos idő: Csüt. Dec. 08, 2016 8:51 am