Szólj hozzá a témához és letöltheted a tartalmat!

Prémium előfizetésel több szálon, várakozás nélküli letöltés, nagy sebességgel!


    Samuel L. Jackson Filmek.

    Share

    Admin
    Admin
    Admin

    Hozzászólások száma : 493
    Join date : 2012. Feb. 06.
    Age : 68
    Tartózkodási hely : Bp.

    Samuel L. Jackson Filmek.

    Témanyitás  Admin on Hétf. Ápr. 02, 2012 7:25 pm


    Samuel L. Jackson

    Születési név
    Samuel Leroy Jackson

    Született
    1948. december 21. (63 éves) Washington

    Származás
    Amerikai Egyesült Államok

    Házastárs
    Latanya Richardson (1980–)

    Pályafutása
    Aktív évek 1972–

    Díjai
    BAFTA-díjak
    Legjobb férfi mellékszereplő
    1995 Ponyvaregény

    További díjak
    Berlini Nemzetközi Filmfesztivál -
    - Ezüst Medve-díj a legjobb színésznek
    1998 Jackie Brown



    Élete
    Samuel Leroy Jackson (1948. december 21.) Oscar-díjra jelölt amerikai színész. Hírnevet az 1990-es évek elején szerzett néhány kritikai sikert aratott alakításával, s azóta élvonalbeli filmsztárrá és kulturális ikonná nőtte ki magát; számos sikerfilmben tűnt fel.

    Jackson felesége Latanya Richardson, akitől egy lánya született. Nagy sportrajongó hírében áll, megszállott golfozó. Számtalan díjat nyert alakításaival, s több ízben jelenítették meg a média különböző formáiban, köztük filmekben, tévésorozatokban és dalokban. Jackson több, mint hatvan filmben szerepelt karrierje során, jelenleg hat filmen dolgozik, amik 2008 és 2009 folyamán kerülnek a mozikba. Legutóbb a Hipervándor című filmben volt látható, de feltűnt Nick Fury apró szerepében is a Vasemberben.

    Jackson elmondta, hogy azokat a szerepeket vállalja el, amiket „izgalmas nézni” és amelyeknél „érdekes karakter rejlik a sztoriban,” illetve hogy szerepeiben olyan dolgokat akar csinálni, amiket korábban még nem, amiket gyermekként látott és meg akart tenni, s most alkalma nyílik rá.

    Karrierje
    A '70-es és '80-as évek

    Jackson kezdetben úgy tervezte, építészetet fog tanulni a Morehouse Collage-on, ám miután egy alkalommal nyilvános iskolai beszédet tartott és megjelent a The Threepenny Opera egy változatában, végül a dráma mellett döntött. Több színdarabban is elkezdett játszani, köztük a Home és az A Soldier's Playben, tévéfilmekben is szerephez jutott, s az első mozifilm, amiben feltűnt, a Together for the Days volt 1972-ben. 1976-ban, ezen kezdeti szerepeit követően Atlantából New York Citybe költözött, s az elkövetkezendő tíz évet a színpadon töltötte, olyan darabokban, mint a The Piano Lesson és a Two Trains Running; mindkettő premierjére a Yale Repertory Theaterben került sor. Karrierje e korai szakaszán Jackson alkohol- és drogfüggő lett, így nem tudta folytatni a Broadwayre vándorló két színműben való szereplését (helyét Charles S. Dutton és Anthony Chisolm vették át).Filmes pályafutása kezdetén, amely főként apró szerepeket foglalt magában, úgymint a gyorséttermi rabló az Amerikába jöttemben és különböző tévéfilmek, Jackson mentora Morgan Freeman volt. Még az 1981-es, az A Soldier's Play című darabbeli alakítását követően bemutatták az akkor kezdő rendezőnek, Spike Lee-nek, aki később kisebb szerepeket biztosított neki a Sulilázban (1988) és a Szemet szemértben (1989).

    Az 1990-es évek

    Jackson kokainfüggősége tovább erősödött, egészen addig, mígnem túladagolta magát, minek hatására családja egy New York-i rehabilitációs klinikára küldte. Miután sikeresen kigyógyult, a Dzsungellázban az akkor relatíve újonc színész, Wesley Snipes drogfüggő bátyját alakította, ami elmondása szerint katartikus élmény volt, mivel nemrégiben szokott le az anyagról. Az 1991-es cannes-i filmfesztiválon alakítását legjobb férfi mellékszereplő díjjal jutalmazták. Ezután játszott a Csak semmi érzelem, a Hosszú lé és a Férfias játékok című filmekben, majd áttért a vígjáték műfajára: a Haláli fegyverben Emilio Estevezzel, az Amos és Andrew bilincsben című produkcióban pedig Nicolas Cage-dzsel szerepelt együtt. A kisebb profilú és könnyebb hangvételű filmek után 1993-ban Steven Spielberggel dolgozott együtt a Jurassic Parkban. A következő évben az egyik főszerepben volt látható Quentin Tarantio Ponyvaregényében; Jackson talán legjelentősebb, emlékezetes monológokkal és egysorosokkal teli szerepe BAFTA-díjat és Oscar-, illetve Golden Globe-jelölést hozott számára.

    Az olyan sikertelen filmeket követően, mint a Megérint a halál, a Pofonláda és a Bármi áron, Jacksont sorra negatív kritikákkal illették. A rossz szérián két, a mozipénztáraknál sikert hozó film változtatott: a Ha ölni kell, melyben egy bíróság előtt álló apát alakított, aki megölte lánya megerőszakolóit, illetve Die Hard-sorozat harmadik része, Az élet mindig drága, amiben Bruce Willis oldalán szerepelt. Előbbiért NAACP Image-díjat is vehetett át, mint legjobb férfi mellékszereplő, emellett Golden Globe-ra jelölték.

    Jacksonból így hamar a jegypénztárak sztárja lett, 1997-ben három főszerepet kapott. A 187-ben egy szörnyű titkot hordozó tanárt játszott, aki Los Angeles-i diákok tanításának szenteli életét. Az Eve's Bayou című filmet producerként is jegyezte, amiért Independent Spirit-díjjal jutalmazták, mint első ilyen jellegű feladatát, az elsőfilmes rendezővel, Kasi Lemonsszal egyetemben. Ismét közös munkára szerződött Quentin Tarantinóval, s elkészült a Jackie Brown, s Berlinben Ezüst Medvét vehetett át szerepformálásáért. 1998-ban Sharon Stone-nal és Dustin Hoffmannal játszott együtt A gömbben, majd Kevin Spacey mellett a Nincs alkuban, ahol egy hamisan megvádolt, ezért túszokat szedő túsztárgyalót alakított. Egy évvel később a Háborgó mélység című cápás horrorban tűnt fel, illetve Mace Windu jedimesterként George Lucas Star Wars I. rész: Baljós árnyakjában. Egy interjúban Jackson elmondta, nem volt lehetősége elolvasni a forgatókönyvet, s egészen a jelmezpróbákig azt sem tudta, milyen szereplőt játszik majd (ismert történet, hogy hajlandó lett volna bármilyen szerepet elfogadni, csak hogy része lehessen a Star Wars-sagának).

    2000 után

    2000. június 13-án Jacksont saját csillaggal tüntették ki a Hollywood sugárúton található hollywoodi hírességek sétányán (Hollywood Walk of Fame). Az új évezredben karrierjét egy tengerészeti ezredes szerepében folytatta A bevetés szabályai című filmben, majd harmadik közös filmjét jegyezte Bruce Willisszel A sebezhetetlennel, továbbá a címszerepet játszotta a Shaft című remake-ben. 2001-ben két cím található filmográfiájában: Az ösztönember, melyben egy hajléktalan zenészt alakított. A filmet az a Kasi Lemmons rendezte, akivel Jackson az Eye's Bayouban is együtt dolgozott. A másik a Hetedik mennyország, amiben skótszoknyás drogkereskedőt alakított. 2002-ben Ben Affleckkel keveredett összetűzésbe az Ütközéspont című filmdrámában. Újra magára öltötte jedi-öltözékét a Star Wars II. rész: A klónok támadása alkalmával, de ezúttal már nagyobb feladatot kapott a népszerű sci-fi-eposzban. Mace Windu bíborszínű fénykardja Jackson ötlete volt; szerette volna, ha karaktere kiemelkedik a zsúfolt csatajelenetből. Eztán Vin Diesel partnere volt a xXx című nagy sikerű akciófilmben. 2003-ban újfent katonai szerepben tűnt fel a Kiképzőtáborban, amiben kilenc év elteltével újra John Travoltával dolgozott együtt. Ezt követte egy '70-es évekbeli tévésorozat moziadaptációja, a S.W.A.T., Colin Farrellel. 2004-ben Ashley Judd mentora volt a Függőségben, majd hangját kölcsönözte A Hihetetlen család egyik szereplőjének, amiért még díjban is részesült. Még ebben az évben cameo-szerepben bukkant fel Tarantino Kill Bill 2.-jében.

    2005-ben szép sikert ért el az amerikai mozikban a Carter edző című sportdráma, ahol egy Ken Carter edző személyére alapozott karaktert személysített meg. Két folytatást is jegyzett ebben az évben: a xXx 2: A következő fokozat minden téren kudarc volt, ám ennek szöges ellentéte mondható el a Csillagok háborúja-széria befejező darabjáról, a Star Wars III. rész: A Sith-ek bosszújáról. Ősszel újfent mélypontra ért a Ki a faszagyerek? című vígjátékkal, amiben Eugene Levyvel kapott keresetlen szavakat a kritikusoktól. 2005. november 4-én a Hawaii Nemzetközi Filmfesztiválon kitüntetést kapott színészi teljesítményéért.

    2006. január 30-án a Grauman's Chinese Theaternél kéz- és lábnyomát hagyhatta ott, így a hetedik afro-amerikaivá, és egyben a 191. színésszé vált, akit e módon elismertek. Következő filmszerepe Julianne Moore-ral volt A bűn színében, a film azonban rossz fogadtatásra lelt. Második munkája az évben a Kígyók a fedélzeten volt, ami már bemutatója előtt hónapokkal kultikus érdeklődést keltett, csupán címe és maga a főszereplő személye miatt. Jackson is csak a cím miatt vállalta a szereplést. A filmet övező várakozásra építve, feltűnt a produkcióhoz készült zenés videoklipben is. December 2-án Jackson elnyerte a német Bambi-díjat, amit számos munkájával érdemelt ki. 2006 legvégén az iraki háborúból hazatérő orvost játszott a Home of the Brave című alkotásban.

    2007 elején, DVD-n jelent meg a Farce of the Penguins című paródia, ami a Pingvinek vándorlását figurázta ki, Jackson narrációjával kísérve (az angol változatban a gúny tárgyát képező film narrátora Morgan Freeman volt). Legutóbbi filmjei közé tartozik a 2007 tavaszán mozikba került A lánc, melyben egy blueszenészt formál meg, aki megpróbál a helyes útra terelni egy szexfüggő fiatal nőt (Christina Ricci). Nyáron az 1408-ban láthatta a közönség Mr. Olin szerepében; a film a második legnagyobb bevételt elérő Stephen King-adaptációvá vált, a Halálsoron mögött. Jackson a Cleaner című filmben, melynek bemutatója a 2007-es torontói filmfesztiválon volt, egy bűntények helyszínén takarító férfit alakít; a produkció az Egyesült Államokban csak DVD-n jelent meg. A 2008. február 14-én, Valentin napon bemutatott Hipervándor című sci-fiben Star Wars-beli szereplőtársa, Hayden Christensen a partnere, s felbukkant a nyári mozszezon első bombasikerében, A Vasemberben is, Nick Fury szerepében. Jackson a Kínzó közellenség-ben rasszista rendőrként tért vissza a vászonra 2008 szeptemberében. Ezután következett a The Spirit - A sikító város, a képregény az alkotó, Frank Miller által rendezett moziadaptációja, illetve a már régóta munkafázisban lévő Quantum Quest: A Cassini Space Odyssey, amihez a hangját adja.

    Karrierje során Jackson számtalan rapperrel szerepelt együtt filmjeiben. Tupac Shakur és Queen Latifah (Hosszú lé), Method Man (187), LL Cool J (Háborgó mélység és S.W.A.T.), Busta Rhymes (Shaft), Eve (xXx), Ice Cube és Xzibit (xXx 2: A következő fokozat), David Banner (A lánc) és 50 Cent (Home of the Brave) szerepel a listán. Ezen felül négy közös filmet jegyez Bruce Willisszel, ezek a Haláli fegyver, a Ponyvaregény, a Die Hard 3 és A sebezhetetlen; mindketten bejegyzett szereplői voltak a Black Water Transit című produkciónak, mielőtt otthagyták a filmet.

    Díjai

    1998 - Golden Globe-jelölés - a legjobb vígjáték vagy musical színész (Jackie Brown)
    1997 - Golden Globe-jelölés - a legjobb férfi epizódszereplő (Ha ölni kell)
    1995 - Oscar-jelölés - a legjobb férfi epizódszereplő (Ponyvaregény)
    1995 - Golden Globe-jelölés - a legjobb férfi epizódszereplő (Ponyvaregény)
    1995 - Golden Globe-jelölés - a legjobb színész tv-filmben (Fejjel a falnak)


    Filmjei

    2012 - A bosszúállók (The Avengers)
    2011 - The Sunset Limited
    2011 - Amerika Kapitány: Az első bosszúálló (Captain America: The First Avenger)
    2010 - Hihetetlen (Unthinkable)
    2010 - Pancserpolice (The Other Guys)
    2010 - Vasember 2. (Iron Man 2)
    2009 - Mother and Child
    2009 - Astro Boy
    2009 - Afro Samurai: Resurrection
    2009 - Afro Samurai
    2009 - Becstelen brigantyk (Inglourious Basterds)
    2008 - Kínzó közelség (Lakeview Terrace)
    2008 - Spirit - A sikító város (The Spirit)
    2008 - Star Wars - A klónok háborúja (Star Wars: The Clone Wars)
    2008 - Hipervándor (Jumper)
    2008 - Vasember (Iron Man)
    2007 - Afro szamuráj (Afro Samurai)
    2007 - A takarító (Cleaner)
    2007 - Viszlát, Bajnok! (Resurrecting the Champ)
    2007 - 1408
    2007 - A lánc (Black Snake Moan)
    2006 - A bátrak hazája (Home of the Brave)
    2006 - Kígyók a fedélzeten (Snakes on a Plane)
    2006 - A bűn színe (Freedomland)
    2005 - Harlem Globetrotters - A csapat, amely megváltoztatta a világot (The Harlem Globetrotters: The Team That Changed the World)
    2005 - Ki a faszagyerek? (The Man)
    2005 - xXx2 - A következő fokozat (xXx2: State of the Union)
    2005 - Star Wars III. rész - A sith-ek bosszúja (Star Wars: Episode III - Revenge of the Sith)
    2005 - Az én hazámban (In My Country)
    2005 - Carter edző (Coach Carter)
    2004 - Hogyan randizzunk Drew Barrymore-ral? (My Date With Drew)
    2004 - A hihetetlen család (The Incredibles)
    2004 - Függőség (Twisted)
    2004 - Kill Bill, Volume 2 (Kill Bill: Vol. 2)
    2003 - Kill Bill (Kill Bill: Vol. 1)
    2003 - S.W.A.T. - Különleges kommandó (S.W.A.T.)
    2003 - Kiképzőtábor (Basic)
    2002 - Az akciófilm művészete (Art of Action - Martial Arts in the Movies)
    2002 - A csapda mélyén (The House on Turk Street)
    2002 - xXx (XXX)
    2002 - Star Wars II. rész - A klónok támadása (Star Wars: Episode II - Attack of the Clones)
    2002 - Ütközéspont (Changing Lanes)
    2001 - Az ösztönember (The Caveman's Valentine)
    2001 - Hetedik mennyország (Formula 51)
    2000 - Sebezhetetlen (Unbreakable)
    2000 - A bevetés szabályai (Rules of Engagement)
    2000 - Shaft
    1999 - Fény és varázslat - A Csillagok háborúja-sztori (From Star Wars to Star Wars: The Story of Industrial Light & Magic)
    1999 - Star Wars I. rész - Baljós árnyak (Star Wars: Episode I - The Phantom Menace
    1999 - Háborgó mélység (Deep Blue Sea)
    1998 - A vörös hegedű (Le Violon rouge)
    1998 - A gömb (Sphere)
    1998 - Mint a kámfor (Out of Sight)
    1998 - Nincs alku (The Negotiator)
    1997 - Eve's Bayou
    1997 - Utánunk a tűzözön (The Long Kiss Goodnight)
    1997 - Jackie Brown
    1997 - 187
    1996 - Ha ölni kell (A Time to Kill)
    1996 - Pofonláda (Great White Hype)
    1995 - Bármi áron (Losing Isaiah)
    1995 - A szerencse zsoldosai (Hard Eight)
    1995 - Megérint a halál (Kiss of Death)
    1995 - Az élet mindig drága (Die Hard With a Vengeance)
    1994 - Éljen Cézár! (Hail Caesar!)
    1994 - Kint az utcán (Fresh)
    1994 - Fejjel a falnak (Against the Wall)
    1994 - Ponyvaregény (Pulp Fiction)
    1994 - Legeslegújabb kor (The New Age)
    1993 - Veszélyes elemek (Menace II Society)
    1993 - Tiszta románc (True Romance)
    1993 - Amos és Andrew bilincsben (Amos & Andrew)
    1993 - Őslénypark (Jurassic Park)
    1993 - Haláli fegyver (National Lampoon's Loaded Weapon)
    1992 - Temetői járat (Jumpin' at the Boneyard)
    1992 - A halál prófétája (Fathers & Sons)
    1992 - Férfias játékok (Patriot Games)
    1992 - Hosszú lé (Juice)
    1991 - Szolgálatban - A maffia ítélete (Dead and Alive: The Race for Gus Farace)
    1991 - Dzsungelláz (Jungle Fever)
    1991 - Csak semmi érzelem (Strictly Business)
    1991 - Fehér sivatag (White Sands)
    1990 - Superfly visszatér (The Return of Superfly)
    1990 - Abrakadabra (A Shock to the System)
    1990 - Nagymenők (GoodFellas)
    1990 - Mo' Better Blues
    1989 - Fejjel a falnak
    1989 - A szerelem tengere (Sea of Love)
    1989 - Szemet szemért (Do the Right Thing)
    1988 - Suli láz (School Daze)
    1988 - Amerikába jöttem (Coming to America)
    1987 - Őrült ritmus (Magic Sticks)
    1981 - Ragtime

    Filmek,amiket megosztok veletek:





    A hozzászólást Admin összesen 2 alkalommal szerkesztette, legutóbb Vas. Júl. 22, 2012 9:01 pm-kor.

    Admin
    Admin
    Admin

    Hozzászólások száma : 493
    Join date : 2012. Feb. 06.
    Age : 68
    Tartózkodási hely : Bp.

    1408. (2007.)| Szinkronos amerikai horror|DVDRip |data.hu

    Témanyitás  Admin on Csüt. Ápr. 05, 2012 7:00 pm








    1408. (2007.) - Datán

    színes, magyarul beszélő, amerikai horror, 104 perc, 2007


    Rendezte:
    Mikael Hafström

    szereplő(k):
    John Cusack (Mike Enslin)
    Samuel L. Jackson (Gerald Olin)
    Mary McCormack (Lily Enslin)
    Tony Shalhoub (Sam Farrell)
    Jasmine Jessica Anthony (Katie)

    Relase:
    "1408.2007.DVDRip.XviD.Hungarian-GTB"
    *****************************************************************
    Codec ID : XVID
    Codec ID/Hint : XviD
    Duration : 1h 39mn
    Bit rate : 862 Kbps
    Width : 640 pixels
    Height : 272 pixels
    Display aspect ratio : 16:9
    Frame rate : 25.000 fps
    Color space : YUV
    Chroma subsampling : 4:2:0
    Bit depth : 8 bits
    Scan type : Progressive
    Compression mode : Lossy
    Bits/(Pixel*Frame) : 0.198
    Stream size : 616 MiB (87%)
    Writing library : Lavc51.44.0

    Audio
    ID : 1
    Format : MPEG Audio
    Format version : Version 1
    Format profile : Layer 3
    Mode : Joint stereo
    Mode extension : MS Stereo
    Codec ID : 55
    Codec ID/Hint : MP3
    Duration : 1h 39mn
    Bit rate mode : Variable
    Bit rate : 112 Kbps
    Channel(s) : 2 channels
    *****************************************************************






    A film rövid tartalma:
    Mike Enslin híres bestseller író, aki paranormális jelenségekről írt könyveivel futott be. Legutóbbi könyvét is hatalmas siker övezi, de az író tudomást se vesz róla, az életét egy fájdalmas családi tragédia árnyékolja be. Képtelen feldolgozni kislánya halálát, a munkájába menekül. Azon dolgozik, hogy bebizonyítsa, a természetfeletti jelenségek mögött mindig szándékos, megszervezett átverés áll. Kutatásai a New York-i Dolphin Hotelbe vezetik, ahol az a véresen legendás 1408-as számú szoba található, amelyben állítólag szellemek gyilkolnak. Enslin kész bebizonyítani, hogy ez is csak egy blöff, és kibérli a szobát annak ellenére, hogy a szálloda igazgatója nyomatékosan megpróbálja lebeszélni tervéről. Az író elfoglalja a szobát, és a saját szemével fog megbizonyosodni arról, hogy szó sincsen előre kitervelt átverésről - a hírhedt 1408-as szoba borzalmait nem a képzelet szülte.







    san

    Admin
    Admin
    Admin

    Hozzászólások száma : 493
    Join date : 2012. Feb. 06.
    Age : 68
    Tartózkodási hely : Bp.

    A bevetés szabályai 2000.| Szinkronos amerikai háborús|DVDRip |data.hu

    Témanyitás  Admin on Csüt. Ápr. 05, 2012 7:16 pm







    A bevetés szabályai 2000. - Datán

    színes, magyarul beszélő, amerikai háborús filmdráma, 122 perc, 2000


    Rendezte:
    William Friedkin

    szereplő(k):
    Samuel L. Jackson (Terry L. Childers ezredes)
    Tommy Lee Jones (Hayes Hodges ezredes)
    Ben Kingsley (Mourain nagykövet)
    Blair Underwood (Lee kapitány)
    Anne Archer (Mrs. Mourain)
    Guy Pearce (Mark Biggs őrnagy)
    Mark Feuerstein (Tom Chandler százados)
    Philip Baker Hall (H. Lawrence Hodges tábornok)
    Bruce Greenwood (William Sokal)
    Nicky Katt (Hayes Hodges III)

    Relase:
    "A.bevetes.szabalyai.2000.DVDRip.Hun-Darkman"
    *****************************************************************
    Codec ID : DX50
    Codec ID/Hint : DivX 5
    Duration : 2h 7mn
    Bit rate : 134 Kbps
    Width : 640 pixels
    Height : 272 pixels
    Display aspect ratio : 2.35:1
    Frame rate : 29.970 fps
    Color space : YUV
    Chroma subsampling : 4:2:0
    Bit depth : 8 bits
    Scan type : Progressive
    Compression mode : Lossy
    Bits/(Pixel*Frame) : 0.026
    Stream size : 122 MiB (11%)
    Writing library : XviD 1.2.1 (UTC 2008-12-04)

    Audio
    ID : 1
    Format : AC-3
    Format/Info : Audio Coding 3
    Codec ID : 2000
    Duration : 2h 7mn
    Bit rate mode : Constant
    Bit rate : 192 Kbps
    Channel(s) : 2 channels
    *****************************************************************






    A film rövid tartalma:
    Terry Childers ezredes (Samuel L. Jackson) harminc éve szolgálja hazáját. Megjárta Vietnamot, Bejrútot és a Sivatagi Vihar hadműveletet. Saját kormánya viszont hadbíróság elé állítja egy rosszul sikerült mentőakció kivitelezése miatt, amelyben civilek is életüket vesztették. Védőügyvédnek egy régi bajtársát kéri fel, akinek megmentette az életét Vietnamban. Hodges védőügyvéd (Tommy Lee Jones) biztosan nem a legjobb a szakmában, de tudja milyen az igazi harci helyzet, mit lehet számon kérni a katonától. Az ügyvéd vonakodva vállalja el az esetet, amely során megkérdőjelezi az életét megmentő ember becsületét, és a hazája iránti feltétlen odaadás eszméjét is.








    Admin
    Admin
    Admin

    Hozzászólások száma : 493
    Join date : 2012. Feb. 06.
    Age : 68
    Tartózkodási hely : Bp.

    A bűn színe (Freedomland) 2006.| Szinkronos amerikai filmdráma|BDRip |data.hu

    Témanyitás  Admin on Csüt. Ápr. 05, 2012 7:23 pm







    A bűn színe (Freedomland) 2006. - Datán

    színes, magyarul beszélő, amerikai filmdráma, 113 perc, 2006


    Rendezte:
    Joe Roth

    szereplő(k):
    Samuel L. Jackson (Lorenzo Council)
    Julianne Moore (Brenda Martin)
    Edie Falco (Karen Collucci)
    William Forsythe (Boyle)
    Ron Eldard (Danny Martin)
    Domenick Lombardozzi (Leo Sullivan)
    Aunjanue Ellis (Felicia)
    Anthony Mackie (Billy Williams)
    LaTanya Richardson (Marie)

    Relase:
    "A.bun.szine.2006.BDRip.XviD.Hun-HDTV"
    *****************************************************************
    Codec ID : XVID
    Codec ID/Hint : XviD
    Duration : 1h 48mn
    Bit rate : 2 066 Kbps
    Width : 720 pixels
    Height : 304 pixels
    Display aspect ratio : 2.35:1
    Frame rate : 25.000 fps
    Original frame rate : 23.976 fps
    Color space : YUV
    Chroma subsampling : 4:2:0
    Bit depth : 8 bits
    Scan type : Progressive
    Compression mode : Lossy
    Bits/(Pixel*Frame) : 0.377
    Stream size : 1.56 GiB (84%)
    Writing library : XviD 1.1.2 (UTC 2006-11-01)

    Audio
    ID : 1
    Format : AC-3
    Format/Info : Audio Coding 3
    Mode extension : CM (complete main)
    Codec ID : 2000
    Duration : 1h 48mn
    Bit rate mode : Constant
    Bit rate : 384 Kbps
    Channel(s) : 6 channels
    *****************************************************************






    A film rövid tartalma:
    A rémült Brenda Martin hátborzongató bejelentést tesz a rendőrségen: egy titokzatos férfi elrabolta a kocsiját, benne négyéves fiával. A nyomozást a tapasztalt rendőrdetektív, Lorenzo Council vezeti, s hamarosan az egész várost megbolygató, rémálomba illő események közepén találja magát, miközben éles vádak és nyugtalanító feltételezések között sodródva próbálja kideríteni az igazságot, amely sokkolóbb, mint gondolná.








    darumanuka
    Fanatikus
    Fanatikus

    Hozzászólások száma : 37
    Join date : 2012. Mar. 01.

    Re: Samuel L. Jackson Filmek.

    Témanyitás  darumanuka on Pént. Ápr. 06, 2012 10:24 am

    Köszönöm! Very Happy

    Admin
    Admin
    Admin

    Hozzászólások száma : 493
    Join date : 2012. Feb. 06.
    Age : 68
    Tartózkodási hely : Bp.

    A csapda mélyén 2002.| Szinkronos amerikai akcióthriller|DVDRip |data.hu

    Témanyitás  Admin on Pént. Ápr. 06, 2012 6:59 pm










    A csapda mélyén 2002. - Datán

    színes, amerikai-német akcióthriller, 103 perc, 2002


    Rendezte:
    Bob Rafelson

    szereplő(k):
    Samuel L. Jackson (Jack Friar)
    Milla Jovovich (Erin)
    Stellan Skarsgard (Tyrone)
    Doug Hutchison (Hoop)
    Grace Zabriskie (Quarrené)
    Joss Ackland (Quarre)

    Relase:
    "A.csapda.melyen.2002.HUN.DVDRip.XviD-pocokmaster"
    *****************************************************************
    Codec ID : XVID
    Codec ID/Hint : XviD
    Duration : 1h 33mn
    Bit rate : 930 Kbps
    Width : 608 pixels
    Height : 320 pixels
    Display aspect ratio : 1.900
    Frame rate : 25.000 fps
    Color space : YUV
    Chroma subsampling : 4:2:0
    Bit depth : 8 bits
    Scan type : Progressive
    Compression mode : Lossy
    Bits/(Pixel*Frame) : 0.191
    Stream size : 622 MiB (89%)
    Writing library : XviD 1.2.0.dev47 (UTC 2006-11-01)

    Audio
    ID : 1
    Format : MPEG Audio
    Format version : Version 1
    Format profile : Layer 3
    Mode : Joint stereo
    Mode extension : MS Stereo
    Codec ID : 55
    Codec ID/Hint : MP3
    Duration : 1h 33mn
    Bit rate mode : Variable
    Bit rate : 104 Kbps
    Nominal bit rate : 128 Kbps
    Channel(s) : 2 channels
    *****************************************************************






    A film rövid tartalma:
    Jack Friar nyomozó (Samuel L. Jackson), aki ezúttal nem hivatalból ered egy tinédzser nyomába: barátja kérte arra, hogy találja meg az elcsatangolt kölyköt. Jack azonban a szökevény helyett egy bizarr b?nbandába botlik, akik épp egy bankrablásra készülnek. Jacket lefogják, túszul ejtik, és a bandavezér gyönyör? barátn?jét (Milla Jovovich) bízzák meg a férfi ?rzésével, amíg végrehajtják a rablást, és eldöntik, hogy mit kezdjenek a váratlan szemtanúval…A kétszeres Oscar-jelölt veterán rendez?, Bob Rafelson (Öt könny? darab, A postás mindig kétszer csenget) tizedik egészestés mozija, mely a krimi-irodalom egyik klasszikusának m?vén alapul. Dashiell Hammett regényeib?l számos legendás film született, többek között A máltai sólyom vagy A halál keresztútján.








    Admin
    Admin
    Admin

    Hozzászólások száma : 493
    Join date : 2012. Feb. 06.
    Age : 68
    Tartózkodási hely : Bp.

    A gömb (Sphere) 1998.| Szinkronos amerikai sci-fi akciófilm|DVDRip |data.hu

    Témanyitás  Admin on Pént. Ápr. 06, 2012 7:08 pm










    A gömb (Sphere) 1998. - Datán

    színes, magyarul beszélő, amerikai sci-fi akciófilm, 134 perc, 1998


    Rendezte:
    Barry Levinson

    szereplő(k):
    Dustin Hoffman (Dr. Norman Goodman)
    Samuel L. Jackson (Harry Adams)
    Liev Schreiber (Ted Fielding)
    Sharon Stone (Dr. Elizabeth Halperin)
    Peter Coyote (Harold Barnes)
    Huey Lewis (Pilóta)
    Queen Latifah (Alice Fletcher)

    Relase:
    "A.Gomb.1998.DVDRip.XviD.HUN-BOSS"
    *****************************************************************
    Codec ID : XVID
    Codec ID/Hint : XviD
    Duration : 2h 8mn
    Bit rate : 1 059 Kbps
    Width : 656 pixels
    Height : 272 pixels
    Display aspect ratio : 2.40:1
    Frame rate : 25.000 fps
    Color space : YUV
    Chroma subsampling : 4:2:0
    Bit depth : 8 bits
    Scan type : Progressive
    Compression mode : Lossy
    Bits/(Pixel*Frame) : 0.237
    Stream size : 976 MiB (70%)
    Writing library : XviD 1.1.0 (UTC 2005-11-22)

    Audio
    ID : 1
    Format : AC-3
    Format/Info : Audio Coding 3
    Mode extension : CM (complete main)
    Codec ID : 2000
    Duration : 2h 8mn
    Bit rate mode : Constant
    Bit rate : 448 Kbps
    Channel(s) : 6 channels
    *****************************************************************






    A film rövid tartalma:
    A Csendes-óceán mélyén egy ismeretlen eredetű, 300 éves űrhajót találnak. Négy fős tudóscsapatot küldenek le a víz mélyére, hogy kiderítsék, van-e élet a hajón. Amikor leereszkednek a mélységbe, egy hatalmas fémgömbre bukkannak, amiről hamarosan kiderül, hogy a jövőben, 2048-ban készült Amerikában. A tudósok behatolnak az űrhajóba, ám nem is sejtik, mi vár rájuk, ahogy azt sem, milyen emberként térnek majd vissza - ha egyáltalán visszatérnek.








    Admin
    Admin
    Admin

    Hozzászólások száma : 493
    Join date : 2012. Feb. 06.
    Age : 68
    Tartózkodási hely : Bp.

    A sebezhetetlen (Unbreakable) 2000.| Szinkronos amerikai akcióthriller|DVDRip |data.hu

    Témanyitás  Admin on Pént. Ápr. 06, 2012 7:16 pm











    A sebezhetetlen (Unbreakable) 2000. - Datán

    színes, magyarul beszélő, amerikai akcióthriller, 106 perc, 2000


    Rendezte:
    M. Night Shyamalan

    szereplő(k):
    Bruce Willis (David Dunn)
    Samuel L. Jackson (Elijah Price)
    Robin Wright Penn (Audrey Dunn)
    Spencer Treat Clark (Joseph Dunn)
    Charlayne Woodard (Elijah anyja)
    Eamonn Walker (Dr. Mathison)
    Leslie Stefanson (Kelly)

    Relase:
    "A.sebezhetetlen.2000.DVDRip.Xvid.HunDub-BD"
    *****************************************************************
    Codec ID : XVID
    Codec ID/Hint : XviD
    Duration : 50mn 59s
    Bit rate : 1 714 Kbps
    Width : 672 pixels
    Height : 288 pixels
    Display aspect ratio : 2.35:1
    Frame rate : 25.000 fps
    Color space : YUV
    Chroma subsampling : 4:2:0
    Bit depth : 8 bits
    Scan type : Progressive
    Compression mode : Lossy
    Bits/(Pixel*Frame) : 0.354
    Stream size : 625 MiB (89%)
    Writing library : XviD 1.2.0.dev47 (UTC 2006-11-01)

    Audio
    ID : 1
    Format : AC-3
    Format/Info : Audio Coding 3
    Format profile : Dolby Digital
    Mode extension : CM (complete main)
    Codec ID : 2000
    Duration : 50mn 59s
    Bit rate mode : Constant
    Bit rate : 192 Kbps
    Channel(s) : 2 channels
    *****************************************************************






    A film rövid tartalma:
    David Dunn biztonsági őr az egyetlen túlélője egy szörnyű vonatbalesetnek. Csodával határos módon egy karcolás nélkül megúszta a tragédiát. Nem sokkal később titokzatos ismeretlen férkőzik David közelébe. Elijah Price képregény-gyűjtő szerint nem véletlenül történnek vele a dolgok. David sohasem volt beteg életében, fizikai erőnléte nem puszta alkati adottság. A törékeny csontjai miatt viszont Mr. Üveg névre hallgató Elijah szerint kettejük sorsában sok a hasonlóság, természetfeletti képességeik kiegészítik egymást. A hitetlen David lassan felfedezi az igazságot Elijah szavaiban. A tét saját életének félelmetesen felsejlő értelme.








    Admin
    Admin
    Admin

    Hozzászólások száma : 493
    Join date : 2012. Feb. 06.
    Age : 68
    Tartózkodási hely : Bp.

    Aréna 2011.| Feliratos amerikai akcióthriller|DVDRip |data.hu

    Témanyitás  Admin on Pént. Ápr. 06, 2012 7:25 pm











    Aréna 2011. - Datán

    színes, angolul beszélő, amerikai akcióthriller, 106 perc, 2000


    Rendezte:
    Jonah Loop

    szereplő(k):
    Nina Dobrev
    Samuel L. Jackson
    Kellan Lutz (David Lord)
    Irene Choi (Kaneko)
    James Remar (Tall Man)

    Relase:
    "Arena.2011.DVDRip.XviD.AC3-playXD"
    *****************************************************************
    Codec ID : XVID
    Codec ID/Hint : XviD
    Duration : 1h 34mn
    Bit rate : 1 680 Kbps
    Width : 720 pixels
    Height : 304 pixels
    Display aspect ratio : 2.35:1
    Frame rate : 23.976 fps
    Color space : YUV
    Chroma subsampling : 4:2:0
    Bit depth : 8 bits
    Scan type : Progressive
    Compression mode : Lossy
    Bits/(Pixel*Frame) : 0.320
    Stream size : 1.11 GiB (81%)
    Writing library : XviD 1.2.0.dev47 (UTC 2006-11-01)

    Audio
    ID : 1
    Format : AC-3
    Format/Info : Audio Coding 3
    Mode extension : CM (complete main)
    Codec ID : 2000
    Duration : 1h 34mn
    Bit rate mode : Constant
    Bit rate : 384 Kbps
    Channel(s) : 6 channels
    *****************************************************************






    A film rövid tartalma:
    David Lord (Kellan Lutz)egy modernkori gladiátorjátékra kényszerített sportoló, ahol halálig tartó küzdelmet vívnak a szereplők az őket folyamatosan figyelő online tömegek szórakoztatására. És online dől el, hogy ki marad életben és kit látnának holtan a nézők!








    Admin
    Admin
    Admin

    Hozzászólások száma : 493
    Join date : 2012. Feb. 06.
    Age : 68
    Tartózkodási hely : Bp.

    Tiszta vér (Cleaner) 2007.| Szinkronos amerikai krimi|BRRip |data.hu

    Témanyitás  Admin on Vas. Ápr. 08, 2012 7:30 am












    Tiszta vér (Cleaner) 2007. - Datán

    színes, magyarul beszélő, amerikai krimi, 88 perc, 2007


    Rendezte:
    Renny Harlin

    szereplő(k):
    Samuel L. Jackson (Tom Cutler)
    Ed Harris (Eddie Lorenzo)
    Eva Mendes (Ann Norcut)
    Luis Guzmán (Jim Vargas)
    Keke Palmer (Rose Cutler)



    Kód:
    http://www.imdb.com/title/tt0896798/

    Relase:
    "Cleaner.Tiszta.ver.2007.BRRip.XviD.HUN.ENG-GanG"


    *****************************************************************
    Codec ID : XVID
    Codec ID/Hint : XviD
    Duration : 1h 25mn
    Bit rate : 1 992 Kbps
    Width : 720 pixels
    Height : 304 pixels
    Display aspect ratio : 2.35:1
    Frame rate : 25.000 fps
    Color space : YUV
    Chroma subsampling : 4:2:0
    Bit depth : 8 bits
    Scan type : Progressive
    Compression mode : Lossy
    Bits/(Pixel*Frame) : 0.364
    Stream size : 1.19 GiB (75%)
    Writing library : XviD 1.2.0.dev47 (UTC 2006-11-01)

    Audio #1
    ID : 1
    Format : AC-3
    Format/Info : Audio Coding 3
    Mode extension : CM (complete main)
    Codec ID : 2000
    Duration : 1h 25mn
    Bit rate mode : Constant
    Bit rate : 448 Kbps
    Channel(s) : 6 channels
    *****************************************************************






    A film rövid tartalma:
    Tom Cutler egykor rendőr volt, de a régi időknek már jó ideje vége. Most azzal keresi a kenyerét, hogy a gyilkosságok helyszínét - a rendőrség megbízásából - a vizsgálat lezárása után tisztára pucolja. Megint csak őt hívják egy külvárosi házba, hogy takarítsa el egy gyilkos lövöldözés nyomait. Ám ezúttal a képlet korántsem olyan egyszerű: Cutler ugyanis a rendrakás helyett akaratlanul a terhelő bizonyítékok eltüntetéséhez nyújt segédkezet.








    Admin
    Admin
    Admin

    Hozzászólások száma : 493
    Join date : 2012. Feb. 06.
    Age : 68
    Tartózkodási hely : Bp.

    Háborgó mélység (Deep Blue Sea)1999.| Szinkronos amerikai katasztrófa|DVDRip |data.hu

    Témanyitás  Admin on Vas. Ápr. 08, 2012 9:08 am










    Háborgó mélység (Deep Blue Sea)1999. - Datán

    színes, magyarul beszélő, amerikai-ausztrál katasztrófa film, 104 perc, 1999


    Rendezte:
    Renny Harlin

    szereplő(k):
    Saffron Burrows (Dr. Susan McAlester)
    Thomas Jane (Carter Blake)
    Samuel L. Jackson (Russell Franklin)
    LL Cool J (Dudley)
    Michael Rapaport (Tom Scoggins)
    Stellan Skarsgard (Jim Whitlock)
    Jacqueline McKenzie (Janice Higgins)



    Kód:
    http://www.imdb.com/title/tt0149261/

    Relase:
    "Deep.Blue.Sea.1999.DVDRip.XviD.HUN-BOSS"


    *****************************************************************
    Codec ID : XVID
    Codec ID/Hint : XviD
    Duration : 51mn 51s
    Bit rate : 1 491 Kbps
    Width : 672 pixels
    Height : 272 pixels
    Display aspect ratio : 2.471
    Frame rate : 25.000 fps
    Color space : YUV
    Chroma subsampling : 4:2:0
    Bit depth : 8 bits
    Scan type : Progressive
    Compression mode : Lossy
    Bits/(Pixel*Frame) : 0.326
    Stream size : 553 MiB (79%)
    Writing library : XviD 1.1.0 (UTC 2005-11-22)

    Audio
    ID : 1
    Format : AC-3
    Format/Info : Audio Coding 3
    Mode extension : CM (complete main)
    Codec ID : 2000
    Duration : 51mn 50s
    Bit rate mode : Constant
    Bit rate : 384 Kbps
    Channel(s) : 6 channels
    *****************************************************************








    A film rövid tartalma:
    Az Aquatica tengeri kutatólaboratórium fedélzetén veszélyes kísérletek folynak. A tudóscsoport vezetője, Dr. Susan McAlester cápákon végez genetikai vizsgálatokat, mert azt reméli, hogy kutatásai révén megtalálja az Alzheimer-kór ellenszerét. Mivel édesapja is ebben a betegségben szenved, ezért maximális odaadással próbálja befejezni a kutatást. Türelmetlenségében azonban végzetes hibát követ el: megszegi a génmanipuláció törvényeit és kitenyészt egy cápafajt, mely okosabb a delfineknél. Amikor a stáb a kísérletek sikerét ünnepli, egy hirtelen jött vihar megrongálja a kutatóbázist és a veszedelmes cápák elszabadulnak.








    Admin
    Admin
    Admin

    Hozzászólások száma : 493
    Join date : 2012. Feb. 06.
    Age : 68
    Tartózkodási hely : Bp.

    Die Hard 3. - Az élet mindig drága 1995.| Szinkronos amerikai akció|BDRip |data.hu

    Témanyitás  Admin on Vas. Ápr. 08, 2012 10:34 am









    Die Hard 3. - Az élet mindig drága 1995. - Datán

    színes, magyarul beszélő, amerikai akciófilm, 131 perc, 1995


    Rendezte:
    John McTiernan

    szereplő(k):
    Bruce Willis (John McClane)
    Jeremy Irons (Simon Gruber/Peter Krieg)
    Samuel L. Jackson (Zeus Carver)
    Graham Greene (Joe Lambert)
    Colleen Camp (Connie Kowalski)
    Richard Council (Otto)
    Nicholas Wyman (Mathias Targo)




    Kód:
    http://www.imdb.com/title/tt0112864/

    Relase:
    "Die.Hard.3.Az.elet.mindig.draga.1995.BDRip.XviD.Hun-HDTV"


    *****************************************************************
    Codec ID : XVID
    Codec ID/Hint : XviD
    Duration : 2h 8mn
    Bit rate : 2 240 Kbps
    Width : 720 pixels
    Height : 304 pixels
    Display aspect ratio : 2.35:1
    Frame rate : 23.976 fps
    Color space : YUV
    Chroma subsampling : 4:2:0
    Bit depth : 8 bits
    Scan type : Progressive
    Compression mode : Lossy
    Bits/(Pixel*Frame) : 0.427
    Stream size : 2.01 GiB (92%)
    Writing library : XviD 1.2.1 (UTC 2008-12-04)

    Audio
    ID : 1
    Format : AC-3
    Format/Info : Audio Coding 3
    Mode extension : CM (complete main)
    Codec ID : 2000
    Duration : 2h 8mn
    Bit rate mode : Constant
    Bit rate : 192 Kbps
    Channel(s) : 2 channels
    *****************************************************************






    A film rövid tartalma:
    John McClane, a New York-i rendőr minduntalan kihívja a sorsot maga ellen, de rendkívüli tehetséggel úrrá lesz a reménytelen helyzeteken is. Most azonban a veszély keresi őt, s nem fordítva. Simon, az ördögi gazember személyes indíttatásból akar bosszút állni McClane-en, akit arra kényszerít, hogy részt vegyen egy halálos játékban, melynek tétje nem más, mint New York. McClane-nek hamarosan új társra akad Zeus (Samuel L. Jackson) személyében, akivel nemsokára együtt járják be a nagyvárost a mindig egy lépéssel előttük járó Simont kutatva.









    A hozzászólást Admin összesen 1 alkalommal szerkesztette, legutóbb Vas. Ápr. 08, 2012 10:47 am-kor.

    Admin
    Admin
    Admin

    Hozzászólások száma : 493
    Join date : 2012. Feb. 06.
    Age : 68
    Tartózkodási hely : Bp.

    Jackie Brown 1997.| Szinkronos amerikai filmdráma|DVDRip |data.hu

    Témanyitás  Admin on Vas. Ápr. 08, 2012 10:45 am










    Jackie Brown 1997. - Datán

    színes, magyarul beszélő, amerikai filmdráma, 148 perc, 1997


    Rendezte:
    Quentin Tarantino

    szereplő(k):
    Pam Grier (Jackie Brown)
    Samuel L. Jackson (Ordell Robbie)
    Robert Forster (Max Cherry)
    Robert De Niro (Louis Gara)
    Bridget Fonda (Melanie Ralston)
    Michael Keaton (Ray Nicolette)
    Michael Bowen (Mark Dargus)
    Chris Tucker (Beaumont Livingston)
    Lisa Gay Hamilton (Sheronda)
    Tom "Tiny" Lister Jr. (Winston)
    Hattie Winston (Simone)
    Aimee Graham (Amy)
    Ellis Williams
    Sid Haig




    Kód:
    http://www.imdb.com/title/tt0119396/

    Relase:
    "Jackie.Brown.1997.DVDRip.XviD.HUN-HLC"


    *****************************************************************
    Codec ID : XVID
    Codec ID/Hint : XviD
    Duration : 1h 13mn
    Bit rate : 869 Kbps
    Width : 576 pixels
    Height : 288 pixels
    Display aspect ratio : 2.000
    Frame rate : 25.000 fps
    Color space : YUV
    Chroma subsampling : 4:2:0
    Bit depth : 8 bits
    Scan type : Progressive
    Compression mode : Lossy
    Bits/(Pixel*Frame) : 0.209
    Stream size : 457 MiB (65%)
    Writing library : XviD 1.2.0.dev47 (UTC 2006-11-01)

    Audio
    ID : 1
    Format : AC-3
    Format/Info : Audio Coding 3
    Mode extension : CM (complete main)
    Codec ID : 2000
    Duration : 1h 13mn
    Bit rate mode : Constant
    Bit rate : 448 Kbps
    Channel(s) : 6 channels
    *****************************************************************








    A film rövid tartalma:
    Jackie Brown, a kalandos előéletű légikisasszony ismét zűrös ügybe keveredik. Bűnözők és idegbajos rendőrök rajzanak körülötte, s miközben volt barátja, a kíméletlen gengszter a "nagy fogásra" készül, ő egy rokonszenves fejvadász segítségével megpróbál túljárni mindenkinek az eszén, és elegánsan átlépni az egész bulin.

    Díjak és jelölések:
    Berlini Nemzetközi Filmfesztivál (1998) - Legjobb férfi alakítás: Samuel L. Jackson
    Berlini Nemzetközi Filmfesztivál (1998) - Arany Medve jelölés: Quentin Tarantino
    Golden Globe díj (1998) - Legjobb színész - zenés film és vígjáték kategória jelölés: Samuel L. Jackson
    Golden Globe díj (1998) - Legjobb színésznő - zenés film és vígjáték kategória jelölés: Pam Grier
    Oscar-díj (1998) - Legjobb férfi mellékszereplő jelölés: Robert Forster








    Admin
    Admin
    Admin

    Hozzászólások száma : 493
    Join date : 2012. Feb. 06.
    Age : 68
    Tartózkodási hely : Bp.

    Hipervándor (Jumper) 2008.| Szinkronos amerikai sci-fi|BDRip |data.hu

    Témanyitás  Admin on Vas. Ápr. 08, 2012 11:44 am










    Hipervándor (Jumper) 2008. - Datán

    színes, magyarul beszélő, amerikai sci-fi, 88 perc, 2008


    Rendezte:
    Doug Liman

    szereplő(k):
    Hayden Christensen (Davey)
    Jamie Bell (Griffin)
    Samuel L. Jackson (Cox)
    Rachel Bilson (Millie)
    Diane Lane (Mary Rice)




    Kód:
    http://www.imdb.com/title/tt0489099/

    Relase:
    "Jumper.2008.HUN.BDRip.XviD-HDEvo"


    *****************************************************************
    Codec ID : XVID
    Codec ID/Hint : XviD
    Duration : 1h 28mn
    Bit rate : 1 307 Kbps
    Width : 640 pixels
    Height : 272 pixels
    Display aspect ratio : 2.35:1
    Frame rate : 23.976 fps
    Color space : YUV
    Chroma subsampling : 4:2:0
    Bit depth : 8 bits
    Scan type : Progressive
    Compression mode : Lossy
    Bits/(Pixel*Frame) : 0.313
    Stream size : 826 MiB (74%)
    Writing library : XviD 58

    Audio
    ID : 1
    Format : AC-3
    Format/Info : Audio Coding 3
    Mode extension : CM (complete main)
    Codec ID : 2000
    Duration : 1h 28mn
    Bit rate mode : Constant
    Bit rate : 448 Kbps
    Channel(s) : 6 channels
    *****************************************************************






    A film rövid tartalma:
    David különleges képességgel rendelkezik, melynek segítségével egyetlen pillanat alatt képes bárhová eljutni a Földön. Vágyainak semmi sem szab gátat, képes a falon vagy bármilyen biztonsági rendszeren áthatolni. Ám egyik nap rájön, hogy nincs egyedül a természetfeletti adottságával. Valójában egy totális háború közepén találja magát, amely megsemmisüléssel fenyegeti a hozzá hasonló, rendkívüli embereket. David a kulcsfigurája ennek a korokon átívelő, az egyszerű halandó számára láthatatlan összecsapásnak, amely szó szerint átfogja az egész Földet.







    Admin
    Admin
    Admin

    Hozzászólások száma : 493
    Join date : 2012. Feb. 06.
    Age : 68
    Tartózkodási hely : Bp.

    Kígyók a fedélzeten 2006.| Szinkronos amerikai akciófilm|BDRip |data.hu

    Témanyitás  Admin on Vas. Ápr. 08, 2012 12:28 pm










    Kígyók a fedélzeten (Snakes on a Plane) 2006. - Datán

    színes, magyarul beszélő, amerikai akciófilm, 107 perc, 2006


    Rendezte:
    David R. Ellis

    szereplő(k):
    Samuel L. Jackson (Neville Flynn)
    Nathan Phillips (Sean Jones)
    Byron Lawson (Edward 'Eddie' Kim)
    Rachel Blanchard (Mercedes Harbont)
    Julianna Margulies (Claire Miller)
    Keith Dallas (Big Leroy DuBois)
    Flex Alexander (Three G's/Clarence Dewey)
    Bobby Cannavale (Hank)
    Todd Louiso (Dr. Steven Price)




    Kód:
    http://www.imdb.com/title/tt0417148/

    Relase:
    "Kigyok.a.fedelzeten.DVDrip.XViD.HunDub-DNS"


    *****************************************************************
    Codec ID : XVID
    Codec ID/Hint : XviD
    Duration : 49mn 47s
    Bit rate : 1 454 Kbps
    Width : 640 pixels
    Height : 272 pixels
    Display aspect ratio : 2.35:1
    Frame rate : 25.000 fps
    Color space : YUV
    Chroma subsampling : 4:2:0
    Bit depth : 8 bits
    Scan type : Progressive
    Compression mode : Lossy
    Bits/(Pixel*Frame) : 0.334
    Stream size : 518 MiB (76%)
    Writing library : Lavc51.21.0

    Audio
    ID : 1
    Format : AC-3
    Format/Info : Audio Coding 3
    Mode extension : CM (complete main)
    Codec ID : 2000
    Duration : 49mn 47s
    Bit rate mode : Constant
    Bit rate : 448 Kbps
    Channel(s) : 6 channels
    *****************************************************************








    A film rövid tartalma:
    A fiatal Sean Jones brutális gyilkosság szemtanúja lesz Hawaii szigetén, terepbiciklizés közben. A hírhedt gengszter, Eddie Kim a szeme láttára végez a neves Los Angeles-i ügyésszel. Sean az egyetlen, aki börtönbe juttathatja a bűnözőt. Ehhez azonban először is Los Angelesbe kell vinni őt a zsaruknak, mielőtt Kim emberei elkapnák. Neville Flynn FBI-ügynökre vár a veszélyes feladat. Utasszállító géppel indulnak, ám valaki leadja a drótot Kimnek. A gengszter utasítására különböző méretű és alakú mérges kígyók százait csempészik a gép rakterébe, majd a felszállást követően szabadon engedik őket.








    Admin
    Admin
    Admin

    Hozzászólások száma : 493
    Join date : 2012. Feb. 06.
    Age : 68
    Tartózkodási hely : Bp.

    Kínzó közelség (Lakeview Terrace) 2008.| Szinkronos amerikai thriller|DVDRip |data.hu

    Témanyitás  Admin on Vas. Ápr. 08, 2012 2:34 pm









    Kínzó közelség (Lakeview Terrace) 2008. - Datán

    színes, magyarul beszélő, amerikai thriller, 105 perc, 2008


    Rendezte:
    Neil LaBute

    szereplő(k):
    Samuel L. Jackson (Abel Turner)
    Patrick Wilson (Chris Mattson)
    Kerry Washington (Lisa Mattson)
    Jay Hernandez (Javier Villareal)
    Keith Loneker (Clarence Darlington)




    Kód:
    http://www.imdb.com/title/tt0947802/

    Relase:
    "Lakeview.Terrace.2008.HUN.DVDRip.XviD-HSF"


    *****************************************************************
    Codec ID : XVID
    Codec ID/Hint : XviD
    Duration : 1h 45mn
    Bit rate : 789 Kbps
    Width : 672 pixels
    Height : 272 pixels
    Display aspect ratio : 2.471
    Frame rate : 25.000 fps
    Color space : YUV
    Chroma subsampling : 4:2:0
    Bit depth : 8 bits
    Scan type : Progressive
    Compression mode : Lossy
    Bits/(Pixel*Frame) : 0.173
    Stream size : 598 MiB (85%)
    Writing library : XviD 1.2.0SMP (UTC 2006-01-08)

    Audio
    ID : 1
    Format : MPEG Audio
    Format version : Version 1
    Format profile : Layer 3
    Mode : Joint stereo
    Mode extension : MS Stereo
    Codec ID : 55
    Codec ID/Hint : MP3
    Duration : 1h 45mn
    Bit rate mode : Variable
    Bit rate : 121 Kbps
    Channel(s) : 2 channels
    *****************************************************************






    A film rövid tartalma:
    Boldogan él a fiatal házaspár, a fehér férfi és fekete bőrű kedvese. Örömük teljes, hiszen végre beköltözhetnek álmaik otthonába, a Los Angeles-i házukba. Chris és Lisa Mattson boldogsága azonban mégsem felhőtlen, hiszen rájuk száll a gyermekét egyedül nevelő, rasszista rendőrtiszt. Abel Turner ugyanis elítéli a feketék és fehérek közötti kapcsolatokat. Ráadásul önjelölt polgárőrként uraskodik a környéken, a túlzásba vitt óvintézkedései bosszantják az új lakókat. Amikor a folyamatos zaklatás elviselhetetlenné válik, megpróbálnak visszavágni. A zsaru erre bepöccen és a csatározás csúnyán elfajul.








    bazsi100
    Töltögető
    Töltögető

    Hozzászólások száma : 14
    Join date : 2012. Feb. 18.

    Re: Samuel L. Jackson Filmek.

    Témanyitás  bazsi100 on Hétf. Ápr. 09, 2012 4:48 pm

    Köszönöm

    ipx
    Fanatikus
    Fanatikus

    Hozzászólások száma : 30
    Join date : 2012. Apr. 01.

    Re: Samuel L. Jackson Filmek.

    Témanyitás  ipx on Kedd. Ápr. 10, 2012 3:18 pm

    kösz

    Admin
    Admin
    Admin

    Hozzászólások száma : 493
    Join date : 2012. Feb. 06.
    Age : 68
    Tartózkodási hely : Bp.

    Shaft (2000). | Szinkronizált amerikai akciófilm |DVDRip | data.hu

    Témanyitás  Admin on Szer. Ápr. 11, 2012 6:00 am








    Shaft (2000). - Datán.


    színes, magyarul beszélő, amerikai-német akciófilm, 99 perc, 2000


    Rendezte:
    John Singleton

    szereplő(k):
    Samuel L. Jackson (John Shaft)
    Vanessa Williams (Carmen)
    Jeffrey Wright (Peoples Hernandez)
    Christian Bale (Walter Wade Jr.)
    Busta Rhymes (Rasaan)
    Dan Hedaya (Jack Roselli detektív)
    Toni Collette (Diane Palmieri)
    Richard Roundtree (nagybácsi)
    Josef Sommer (Curt Fleming)



    Kód:
    http://www.imdb.com/title/tt0162650/

    Relase:

    "Shaft.DVDRip.XviD.HunDub-PREtorians"

    *****************************************************************
    Codec ID : XVID
    Codec ID/Hint : XviD
    Duration : 1h 35mn
    Bit rate : 890 Kbps
    Width : 592 pixels
    Height : 256 pixels
    Display aspect ratio : 2.35:1
    Frame rate : 25.000 fps
    Color space : YUV
    Chroma subsampling : 4:2:0
    Bit depth : 8 bits
    Scan type : Progressive
    Compression mode : Lossy
    Bits/(Pixel*Frame) : 0.235
    Stream size : 606 MiB (87%)
    Writing library : XviD 1.1.0 (UTC 2005-11-22)

    Audio
    ID : 1
    Format : MPEG Audio
    Format version : Version 1
    Format profile : Layer 3
    Mode : Joint stereo
    Mode extension : MS Stereo
    Codec ID : 55
    Codec ID/Hint : MP3
    Duration : 1h 35mn
    Bit rate mode : Constant
    Bit rate : 128 Kbps
    Channel(s) : 2 channels
    *****************************************************************







    A film rövid tartalma:
    Amikor Walter Wade, az elkényeztetett egyetemista megöl egy fiatal fekete diákot, John Shaft hajtja végre a letartóztatást. Walter kicsúszik az igazságszolgáltatás kezei közül és meglép az országból, ám kétévnyi várakozás után, amint Walter titokban visszatér az államokba, Shaft ismét őrizetbe veszi. Walter tehetős apja azonban megint leteszi fiacskájáért az óvadékot, úgyhogy az - immár újra szabadlábon - csak az alkalmat lesi, hogy hullaházba küldje Shaftot. Ugyanerre az alkalomra vár Shaft két korrupt kollégája Jack Roselli és Jimmy Grovitch is, csakúgy, mint Poeples Hernandez, egy dominikai kábítószer-kereskedő kiskirály, aki azért esküdött bosszút Shaft ellen, mert az megszégyenítette őt a fennhatósága alatt álló körzetben. A nyomozó csak két legközelebbi barátjára támaszkodhat: Carmenre, aki szintén zsaru, és utcai ügyekben bennfentesnek számító bizalmasára Rasaanra. Közben Shaftnak még fel kell kutatnia a gyilkosság egyetlen tanúját, Diane Palmierit is, aki segíthetne egyszer s mindenkorra hűvösre tenni ellenségeit, hiába vadásznak rá a város legkeményebb gyilkosai.
    "Annó megnéztem vagy 10-szer biztos.Egyik kedvencem volt!"

    Díjak és jelölések:
    Torontói Nemzetközi Filmfesztivál (2000) - Legjobb férfi mellékszereplő: Jeffrey Wright

    ---------------------------------------------------------------------








    NÉZD MEG A TÖBBI FELTÖLTÉSEMET IS!


    Admin
    Admin
    Admin

    Hozzászólások száma : 493
    Join date : 2012. Feb. 06.
    Age : 68
    Tartózkodási hely : Bp.

    Ponyvaregény - Pulp Fiction 1994.|Szinkronizált amerikai krimi |BDRip |data.hu

    Témanyitás  Admin on Szer. Ápr. 11, 2012 6:13 am








    Ponyvaregény - Pulp Fiction 1994. - Datán.


    színes, magyarul beszélő, amerikai krimi, 150 perc, 1994


    Rendezte:
    Quentin Tarantino

    író:
    Roger Avary, Quentin Tarantino

    szereplő(k):
    John Travolta (Vincent Vega)
    Samuel L. Jackson (Jules Winnfield)
    Uma Thurman (Mia Wallace)
    Bruce Willis (Butch Coolidge)
    Quentin Tarantino (Jimmie Dimmick)
    Tim Roth (Pumpkin)
    Amanda Plummer (Honey Bunny)
    Maria de Medeiros (Fabienne)
    Ving Rhames (Marsellus Wallace)
    Eric Stoltz (Lance)
    Rosanna Arquette (Jody)
    Christopher Walken (Koons kapitány)
    Paul Calderon (Paul)
    Harvey Keitel (Winston 'The Wolf' Wolfe)



    Kód:
    http://www.imdb.com/title/tt0110912/

    Relase:

    "Pulp.Fiction.1994.BDRip.XviD.Hungarian-iQuality"

    *****************************************************************
    Codec ID : XVID
    Codec ID/Hint : XviD
    Duration : 2h 34mn
    Bit rate : 1 795 Kbps
    Width : 720 pixels
    Height : 304 pixels
    Display aspect ratio : 2.35:1
    Frame rate : 23.976 fps
    Color space : YUV
    Chroma subsampling : 4:2:0
    Bit depth : 8 bits
    Scan type : Progressive
    Compression mode : Lossy
    Bits/(Pixel*Frame) : 0.342
    Stream size : 1.93 GiB (82%)
    Writing library : XviD 1.2.1 (UTC 2008-12-04)

    Audio
    ID : 1
    Format : AC-3
    Format/Info : Audio Coding 3
    Mode extension : CM (complete main)
    Codec ID : 2000
    Duration : 2h 29mn
    Bit rate mode : Constant
    Bit rate : 384 Kbps
    Channel(s) : 6 channels
    *****************************************************************







    A film rövid tartalma:
    Adott két idősödő, szabad szájú, tökös, szimpatikus gengszter, Vincent (John Travolta) és Jules (Samuel L. Jackson), akik igyekeznek főnöküknek visszaszerezni egy aktatáskát. Ehhez persze meg kell ölniük pár embert, de ez az egyszerű bérgyilkosokkal gyakran megesik. Jules a rá célzott golyókat csodával határos módon elkerüli, s ezt jelnek tekintvén úgy dönt, felhagy eddigi életével. Társának viszont el kell vinnie szórakozni a gengszterfőnök feleségét... Van továbbá egy boxoló, Butch (Bruce Willis), aki a hírhedt marffiafőnök, Marselleus Wallace (Ving Rhames) átvágását tervezi. Hogy-hogy nem, odáig fajul a történet, hogy végül már inkább a megmentésére készül, mint a lelövésére... Nem utolsósorban, pedig, van egy piti rabló-párosunk is (Tim Roth és Amanda Plummer), akik éppen egy étterem kirablására készülnek. Ám ott reggelizik Vincent és Jules.

    Díjak és jelölések:
    BAFTA-díj (1995) - Legjobb férfi mellékszereplő: Samuel L. Jackson
    BAFTA-díj (1995) - Legjobb eredeti forgatókönyv: Roger Avary, Quentin Tarantino
    Cannes (1994) - Arany Pálma
    Golden Globe díj (1995) - Legjobb forgatókönyv: Quentin Tarantino
    Oscar-díj (1995) - Legjobb eredeti forgatókönyv: Roger Avary, Quentin Tarantino
    Golden Globe díj (1995) - Legjobb rendező jelölés: Quentin Tarantino
    Golden Globe díj (1995) - Legjobb férfi mellékszereplő jelölés: Samuel L. Jackson
    Golden Globe díj (1995) - Legjobb női mellékszereplő jelölés: Uma Thurman
    Golden Globe díj (1995) - Legjobb színész - drámai kategória jelölés: John Travolta
    Golden Globe díj (1995) - Legjobb film - drámai kategória jelölés
    Oscar-díj (1995) - Legjobb film jelölés: Lawrence Bender
    Oscar-díj (1995) - Legjobb rendező jelölés: Quentin Tarantino
    Oscar-díj (1995) - Legjobb férfi mellékszereplő jelölés: Samuel L. Jackson
    Oscar-díj (1995) - Legjobb női mellékszereplő jelölés: Uma Thurman
    Oscar-díj (1995) - Legjobb vágás jelölés: Sally Menke
    Oscar-díj (1995) - Legjobb férfi alakítás jelölés: John Travolta

    ---------------------------------------------------------------------








    NÉZD MEG A TÖBBI FELTÖLTÉSEMET IS!


    Admin
    Admin
    Admin

    Hozzászólások száma : 493
    Join date : 2012. Feb. 06.
    Age : 68
    Tartózkodási hely : Bp.

    Pancser Police 2010.|Szinkronizált amerikai akció-vígjáték |720p.MKV |data.hu

    Témanyitás  Admin on Szer. Ápr. 11, 2012 6:22 am









    Pancser Police (The Other Guys) 2010. - Datán.


    színes, magyarul beszélő, amerikai akció-vígjáték, 107 perc, 2010


    Rendezte:
    Adam McKay


    szereplő(k):
    Mark Wahlberg (Terry Hoitz nyomozó)
    Will Ferrell (Allen Gamble nyomozó)
    Samuel L. Jackson (Highsmith)
    Dwayne "The Rock" Johnson (Danson)
    Eva Mendes (Sheila Gamble)
    Lindsay Sloane (Francine)
    Michael Keaton (Gene Mauch parancsnok)
    Anne Heche (Pamela Boardman)
    Steve Coogan (David Ershon)

    szinkronhang:
    Széles Tamás (Terry Hoitz nyomozó magyar hangja)
    Kerekes József (Allen Gamble nyomozó magyar hangja)
    Kéri Kitty (Sheila Gamble magyar hangja)
    Epres Attila (Gene Mauch parancsnok magyar hangja)



    Kód:
    http://www.imdb.com/title/tt1386588/

    Relase:

    "Pancser.police.BOVITETT.2010.HUN.720p.BRRip.x264-racis"

    *****************************************************************
    Codec ID : V_MPEG4/ISO/AVC
    Duration : 1h 56mn
    Bit rate : 2 382 Kbps
    Width : 1 280 pixels
    Height : 528 pixels
    Display aspect ratio : 2.40:1
    Frame rate : 23.976 fps
    Color space : YUV
    Chroma subsampling : 4:2:0
    Bit depth : 8 bits
    Scan type : Progressive
    Bits/(Pixel*Frame) : 0.147
    Stream size : 1.89 GiB (84%)
    Writing library : x264 core 80 r1376M 3feaec2

    Audio
    ID : 2
    Format : AC-3
    Format/Info : Audio Coding 3
    Mode extension : CM (complete main)
    Codec ID : A_AC3
    Duration : 1h 56mn
    Bit rate mode : Constant
    Bit rate : 384 Kbps
    Channel(s) : 6 channels
    Channel positions : Front: L C R, Side: L R, LFE
    Sampling rate : 48.0 KHz
    Bit depth : 16 bits
    Compression mode : Lossy
    Stream size : 319 MiB (14%)
    Title : Hungarian AC3 5.1 384kbps
    Language : Hungarian
    *****************************************************************






    A film rövid tartalma:
    Sokféle rendőr van: vannak a gyors, kemény zsaruk, akik mindig tudják, mit kell mondani, ha végre szembetalálkoznak a főgonosszal. Persze akadnak olyanok is, akik jobban érzik magukat a központban, amikor az íróasztaluknál ülhetnek, és jelentést írhatnak. Allen (Will Ferrell), a gyilkosságiak könyvelője legalábbis ilyen. Társát, Terryt (Mark Wahlberg) azért más fából faragták, de amióta egy túl gyorsan elsült pisztolynak köszönhetően nyilvánosan megszégyenült, Allen mellé osztották be. Ők ketten csak messziről bámulják az ügyosztály menő kopóit Dansont és Manzettit (Dwayne Johnson és Samuel L. Jackson), míg végül egyszer úgy hozza a sors, hogy kénytelenek a helyükre lépni. Eljön a nagy lehetőség, hogy megmutassák, ők is igazi rendőrök; végre bebizonyíthatják, bennük is ott bujkál valahol az elszánt nagyvárosi cowboy - de sajnos, minden egészen másképp alakul, mint ahogy elképzelték.


    ---------------------------------------------------------------------








    NÉZD MEG A TÖBBI FELTÖLTÉSEMET IS!


    Admin
    Admin
    Admin

    Hozzászólások száma : 493
    Join date : 2012. Feb. 06.
    Age : 68
    Tartózkodási hely : Bp.

    Ütközéspont (Changing Lanes) 2002.|Szinkronizált amerikai filmdráma |DVDRip|data.hu

    Témanyitás  Admin on Szer. Ápr. 11, 2012 6:31 am









    Ütközéspont (Changing Lanes) 2002. - Datán.


    színes, magyarul beszélő, amerikai filmdráma, 98 perc, 2002


    Rendezte:
    Roger Michell


    szereplő(k):
    Ben Affleck (Gavin Banek)
    Samuel L. Jackson (Doyle Gibson)
    Toni Collette (Michelle)
    Sydney Pollack (Delano)
    Amanda Peet (Cynthia Banek)
    Kim Staunton (Valerie Gipson)
    Cole Hawkins (Danny Gipson)



    Kód:
    http://www.imdb.com/title/tt0264472/

    Relase:

    "Utkozespont.DVDRip.XviD.HunDub-By"

    *****************************************************************
    Codec ID : XVID
    Codec ID/Hint : XviD
    Duration : 1h 34mn
    Bit rate : 1 607 Kbps
    Width : 688 pixels
    Height : 384 pixels
    Display aspect ratio : 16:9
    Frame rate : 25.000 fps
    Color space : YUV
    Chroma subsampling : 4:2:0
    Bit depth : 8 bits
    Scan type : Progressive
    Compression mode : Lossy
    Bits/(Pixel*Frame) : 0.243
    Stream size : 1.06 GiB (78%)
    Writing library : XviD 1.1.0 (UTC 2005-11-22)

    Audio
    ID : 1
    Format : AC-3
    Format/Info : Audio Coding 3
    Mode extension : CM (complete main)
    Codec ID : 2000
    Duration : 1h 34mn
    Bit rate mode : Constant
    Bit rate : 448 Kbps
    Channel(s) : 6 channels
    *****************************************************************






    A film rövid tartalma:
    A menő ügyvéd, Gavin Banek (Ben Affleck) késésben van a bíróságról, és igyekszik átverekedni magát a csúcsforgalmon. Egy másik sávban Doyle Gipson (Samuel L. Jackson) szintén a bíróságra tart, ahol eldől, láthatja-e gyermekeit, és a bírónak tele a napi ügylajstroma, nincs ideje várni. A felszínen Banek és Gipson nagyon különböznek: egyikük a pályája csúcsára igyekszik, míg a másik kétségbeesetten próbál felkapaszkodni a mélypontról. Ám egy apró karambol az önpusztítás szélére sodorja ezt a két idegent, és bebizonyítja, hogy a düh minden előnyt kiegyenlít, ha az ember fenevaddá válik.


    ---------------------------------------------------------------------







    NÉZD MEG A TÖBBI FELTÖLTÉSEMET IS!


    Admin
    Admin
    Admin

    Hozzászólások száma : 493
    Join date : 2012. Feb. 06.
    Age : 68
    Tartózkodási hely : Bp.

    S.W.A.T.-Különleges kommandó 2003.|Szinkronizált amerikai akcióthriller |BDRip |data.hu

    Témanyitás  Admin on Szer. Ápr. 11, 2012 6:43 am









    S.W.A.T. - Különleges kommandó 2003. - Datán.


    színes, magyarul beszélő, amerikai akcióthriller, 117 perc, 2003


    Rendezte:
    lark Johnson


    szereplő(k):
    Colin Farrell (Jim Street)
    Samuel L. Jackson (Dan "Hondo" Harrelson őrmester)
    Jeremy Renner (Brian Gamble)
    Larry Poindexter (Thomas Fuller kapitány)
    LL Cool J (Deke)
    Michelle Rodriguez (Chris Sanchez)
    Olivier Martinez (Alex)
    Josh Charles (T.J. McCabe)



    Kód:
    http://www.imdb.com/title/tt0257076/

    Relase:

    "SWAT.2003.BDRip.XviD.Hun-Predator"

    *****************************************************************
    Codec ID : XVID
    Codec ID/Hint : XviD
    Duration : 1h 57mn
    Bit rate : 1 300 Kbps
    Width : 720 pixels
    Height : 300 pixels
    Display aspect ratio : 2.40:1
    Frame rate : 23.976 fps
    Color space : YUV
    Chroma subsampling : 4:2:0
    Bit depth : 8 bits
    Scan type : Progressive
    Compression mode : Lossy
    Bits/(Pixel*Frame) : 0.251
    Stream size : 1.06 GiB (74%)
    Writing library : XviD 1.2.0.dev47 (UTC 2006-11-01)

    Audio
    ID : 1
    Format : AC-3
    Format/Info : Audio Coding 3
    Mode extension : CM (complete main)
    Codec ID : 2000
    Duration : 1h 57mn
    Bit rate mode : Constant
    Bit rate : 448 Kbps
    Channel(s) : 6 channels
    *****************************************************************






    A film rövid tartalma:
    Brian (Jeremy Renner) és Jim (Colin Farrell) a rendőrség elit osztagának a tagjait egy rosszul sikerült túszmentő akció miatt felfüggesztik. Brian megsértődve távozik, míg Jim inkább vállalja a megalázó lefokozást, csakhogy az egység közelében maradhasson. Az alkalom hamarosan el is jön Hondo őrmester (Samuel L. Jackson) személyében, aki egy újonnan létrehozott egységhez hívja. Alex Montelt (Olivier Martinez), a hírhedt drogbárót közben sittre vágják Los Angelesben. A dörzsölt maffiózó azonban alaposan feladja a leckét a rendőrségnek, amikor hatalmas összeget ajánl fel azoknak, akik kiszabadítják.


    ---------------------------------------------------------------------








    NÉZD MEG A TÖBBI FELTÖLTÉSEMET IS!


    Admin
    Admin
    Admin

    Hozzászólások száma : 493
    Join date : 2012. Feb. 06.
    Age : 68
    Tartózkodási hely : Bp.

    Vasember 2 (Iron Man 2) 2010.|Szinkronizált amerikai akció |BDRip |data.hu

    Témanyitás  Admin on Vas. Ápr. 15, 2012 7:28 am









    Vasember 2 (Iron Man 2) 2010. - Datán.


    színes, magyarul beszélő, amerikai fantasztikus akciófilm, 124 perc, 2010


    Rendezte:
    Jon Favreau


    szereplő(k):
    Robert Downey Jr. (Tony Stark/Vasember)
    Gwyneth Paltrow (Pepper Potts)
    Don Cheadle (James Rhodes/Hadigép)
    Sam Rockwell (Justin)
    Mickey Rourke (Ivan/Whiplash)
    Scarlett Johansson (Natasha Romanoff/Fekete Özvegy)
    Samuel L. Jackson (Nick Fury)
    Jon Favreau (Happy Hogan)
    Garry Shandling (Stern szenátor)
    John Slattery (Howard Stark)
    Leslie Bibb (Christine Everhart)

    szinkronhang:
    Fekete Ernő (Tony Stark/Vasember magyar hangja)
    Dörner György (Ivan/Whiplash magyar hangja)
    Csondor Katalin (Natasha Romanoff/Fekete Özvegy magyar hangja)
    Vass Gábor (Nick Fury magyar hangja)




    Kód:
    http://www.imdb.com/title/tt1228705/

    Relase:

    "Vasember.2.2010.BDRip.XviD.Hun-HDTV"

    *****************************************************************
    Codec ID : XVID
    Codec ID/Hint : XviD
    Duration : 2h 4mn
    Bit rate : 1 393 Kbps
    Width : 720 pixels
    Height : 304 pixels
    Display aspect ratio : 2.35:1
    Frame rate : 23.976 fps
    Color space : YUV
    Chroma subsampling : 4:2:0
    Bit depth : 8 bits
    Scan type : Progressive
    Compression mode : Lossy
    Bits/(Pixel*Frame) : 0.265
    Stream size : 1.21 GiB (75%)
    Writing library : XviD 1.0.2 (UTC 2004-08-29)

    Audio
    ID : 1
    Format : AC-3
    Format/Info : Audio Coding 3
    Codec ID : 2000
    Duration : 2h 4mn
    Bit rate mode : Constant
    Bit rate : 448 Kbps
    Channel(s) : 6 channels
    *****************************************************************






    A film rövid tartalma:
    Kiderült, hogy a szuperhős Vasember valójában Tony Stark. Kihasználva az iránta való érdeklődést a milliárdos feltaláló fel akarja hívni a figyelmet a közjó szolgálatába állítható technikai újdonságokra. A kormány azonban azt szeretné, ha fejlesztéseit a hadsereg kapná. Tony azonban nem akarja megosztani a Vasemberrel kapcsolatos információit, attól fél, hogy azok rossz kezekbe kerülnek. Közben felbukkan egy rejtélyes figura a Stark család múltjából. Ivan Vanko a saját fegyverével akarja elpusztítani a Vasembert. A szuperhős kénytelen újra akcióba lépni, hogy a barátai segítségével legyőzze azokat az erőket, amelyek őt és az emberiséget fenyegetik.

    Díjak és jelölések:
    Oscar-díj (2011) - Legjobb vizuális effektusok jelölés
    ---------------------------------------------------------------------








    NÉZD MEG A TÖBBI FELTÖLTÉSEMET IS!


    doresz2
    Data - Fájlmegosztó
    Data - Fájlmegosztó

    Hozzászólások száma : 112
    Join date : 2012. Mar. 28.

    Re: Samuel L. Jackson Filmek.

    Témanyitás  doresz2 on Vas. Ápr. 15, 2012 12:14 pm

    Köszönöm!

    Sponsored content

    Re: Samuel L. Jackson Filmek.

    Témanyitás  Sponsored content Today at 6:51 pm


      Pontos idő: Kedd. Dec. 06, 2016 6:51 pm