Szólj hozzá a témához és letöltheted a tartalmat!

Prémium előfizetésel több szálon, várakozás nélküli letöltés, nagy sebességgel!


    Edward Norton Filmek.

    Share

    Admin
    Admin
    Admin

    Hozzászólások száma : 493
    Join date : 2012. Feb. 06.
    Age : 68
    Tartózkodási hely : Bp.

    Edward Norton Filmek.

    Témanyitás  Admin on Hétf. Ápr. 02, 2012 7:25 pm

    Feltöltés alatt.

    Edward Norton

    Születési név
    Edward Norton

    Született
    1969. augusztus 18. (42 éves) Massachusetts, Columbia, USA

    Származás
    Amerikai Egyesült Államok

    Pályafutása
    Aktív évek 1994 - napjainkig

    Híres szerepei
    Narrátor (Harcosok klubja)
    Derek Vinyard (Amerikai história X)
    Aaron (Legbelső félelem)

    Díjai
    Golden Globe-díjak
    legjobb férfi mellékszereplő
    Legbelső félelem (1997)

    További díjak
    Sant Jordi-díj - Legjobb külföldi színész
    Az utolsó éjjel (2004)



    Élete

    Tipikus középosztálybeli család gyermekeként született. Ötéves korában kezdett érdeklődni a színészet iránt, amikor megnézte a Hamupipőke című musicalt. A deszkákon először nyolcévesen állt az Annie Get Your Gun című darab egyik szereplőjeként. Később a Wild Lake középiskolában tanult, ahol folytatta a színjátszást, majd az iskola kosárlabdacsapatába is bekerült. Sporttudását később az Amerikai história X-ben is megmutatta, ám Az utolsó éjjelben is utalt rá. Diplomáját 1991-ben szerezte meg a Yale egyetemen történelem szakon. Itt kezdett el japánul is tanulni. A nyelvet ezután volt alkalma használni, hiszen ezután a szigetországba költözött, hogy nagyapja mellett dolgozhasson egészen 1994-ig. Ekkor tért haza New York-ba, s rögtön fejest ugrott a kezdő színészek szokásos életébe: esténként pincérkedett, nappal pedig meghallgatásokra járt, valamint színdarabokban szerepelt. Ez egészen addig ment, míg felvételt nem nyert a világhírű drámaíró, Edward Albee társulatába.

    A filmvilágba 1996-ban robbant be Legbelső félelem című thrillerével, melyben a gyilkossá váló kóristafiút alakította Richard Gere oldalán. Teljesítményéért Arany Glóbuszra, illetve Oscar-díjra jelölték a legjobb férfi epizódszereplő kategóriában. Ezt követően olyan rendezőlegendák bízták rá filmjeik főszerepét, mint Woody Allen (Varázsige: I Love You), Miloš Forman (Larry Flynt, a provokátor). A töretlen karriert tragédiák sora árnyékolja be: először nagyapját veszti el, majd egy évre rá édesanyját. Legközelebb 1998-ban láthattuk újra a vásznon a Pókerarcok című moziban Matt Damon mellett. Ugyanebben az évben került hozzá az Amerikai história X című alkotás forgatókönyve. A politikailag totálisan semleges Norton elvállalta a megvilágosult bőrfejű, Derek Vinyard fejlődéstörténetének főszerepét. 1998 legkiválóbb színészi teljesítményének lehettünk ekkor szemtanúi: 15 kilónyi plusz, s mélyen átélt alakítás, melyért újra Golden Globe-ra és Oscarra jelölték. Az Amerikai históriát David Fincher 1999-es Harcosok klubja című rendezése követte. Itt Brad Pitt oldalán jelenik meg a szürke, öltönyös aktakukac szerepében. Ezután Ridley Scott Mennyei királyságában láthattuk a leprás IV. Balduin király szerepében.

    Díjai

    Boston Society of Film Critics Awards
    1996. legjobb férfi epizódszereplő (Larry Flynt, a provokátor, Legbelső félelem, Varázsige: I Love You!)

    Chicago Film Critics Association Awards
    1999. a legígéretesebb színész (Larry Flynt, a provokátor, Legbelső félelem, Varázsige: I Love You!)

    Florida Film Critics Circle Awards
    1997. legjobb férfi epizódszereplő (Larry Flynt, a provokátor, Legbelső félelem, Varázsige: I Love You!)

    Golden Globe
    1997. legjobb férfi epizódszereplő (Legbelső félelem)

    Kansas City Film Critics Circle Awards
    1997. legjobb férfi epizódszereplő (Legbelső félelem)

    Los Angeles Film Critics Association Awards
    1996. legjobb férfi epizódszereplő (Larry Flynt, a provokátor, Legbelső félelem, Varázsige: I Love You!)

    National Board of Review, USA
    1996. legjobb férfi epizódszereplő (Varázsige: I love You!)

    San Diego Film Critics Society Awards
    2006. Speciális Díj (Illúzionista, Színes fátyol, San Fernando völgye)

    Sant Jordi Awards
    2004. legjobb külföldi színész (Az utolsó éjjel)

    Satellite Awards
    1999. legjobb színész dráma kategóriában (Amerikai história X)

    Society of Texas Film Critics Awards
    1996. legjobb férfi epizódszereplő (Larry Flynt, a provokátor, Legbelső félelem)

    Southeastern Film Critics Association Awards
    1999. legjobb színész (Amerikai história X, Pókerarcok)
    1997. legjobb férfi epizódszereplő (Legbelső félelem, Larry Flynt, a provokátor, Varázsige: I love You!)

    Street Film Festival, Milan
    2000. legjobb film (Ég velünk!)


    Filmjei

    Legbelső félelem (1996)
    Larry Flynt, a provokátor (1996)
    Varázsige: I love you (1996)
    Amerikai história X (1998)
    Pókerarcok (1998)
    Harcosok klubja (1999)
    Ég velünk! (2000)
    A szajré (2001)
    Dögölj meg, Smaci! (2002)
    Frida (2002)
    A Vörös Sárkány (2002)
    Az utolsó éjjel (2002)
    Az olasz meló (2003)
    Mennyei királyság (2005)
    San Fernando völgye (2005)
    A mágus (2006)
    Színes fátyol (2006)
    A hihetetlen Hulk (2008)
    A zsaruk becsülete (Pride and Glory) (2008)
    Motherless Brooklyn (2008)
    Leaves of Grass (2009)
    Stone (2010)


    A hozzászólást Admin összesen 1 alkalommal szerkesztette, legutóbb Vas. Júl. 22, 2012 9:01 pm-kor.

    Admin
    Admin
    Admin

    Hozzászólások száma : 493
    Join date : 2012. Feb. 06.
    Age : 68
    Tartózkodási hely : Bp.

    A mágus 2006.| Szinkronos amerikai filmdráma |DvdRip |data.hu

    Témanyitás  Admin on Szer. Ápr. 04, 2012 6:45 pm









    A mágus (The Illusionist) 2006.

    színes, magyarul beszélő, cseh-amerikai filmdráma, 110 perc, 2006


    Rendezte:
    Neil Burger

    szereplő(k):
    Edward Norton (Eisenheim)
    Paul Giamatti (Uhl)
    Jessica Biel (Sophie)
    Eddie Marsan (Josef Fischer)
    Rufus Sewell (Leopold)

    Relase:
    "A.Magus.Retail.2006.DvdRip.XviD.Hun.Eng-HUNVATiON"
    *****************************************************************
    Codec ID : XVID
    Codec ID/Hint : XviD
    Duration : 1h 40mn
    Bit rate : 1 561 Kbps
    Width : 688 pixels
    Height : 384 pixels
    Display aspect ratio : 16:9
    Frame rate : 25.000 fps
    Color space : YUV
    Chroma subsampling : 4:2:0
    Bit depth : 8 bits
    Scan type : Progressive
    Compression mode : Lossy
    Bits/(Pixel*Frame) : 0.236
    Stream size : 1.09 GiB (80%)
    Writing library : XviD 1.2.0.dev47 (UTC 2006-11-01)

    Audio #1
    ID : 1
    Format : MPEG Audio
    Format version : Version 1
    Format profile : Layer 3
    Mode : Joint stereo
    Mode extension : MS Stereo
    Codec ID : 55
    Codec ID/Hint : MP3
    Duration : 1h 40mn
    Bit rate mode : Constant
    Bit rate : 192 Kbps
    Channel(s) : 2 channels
    *****************************************************************






    A film rövid tartalma:
    Eisenheim, az ünnepelt mágus (Edward Norton) nem csak egész Bécset kápráztatja el mutatványaival, hanem az ambiciózus Leopold herceget (Rufus Sewell), Ferenc József fiát is. Ám amikor Leopold menyasszonya, Sophie (Jessica Biel) megpillantja gyerekkori szerelmét, Eisenheimet, és újra fellobban iránta a tűz, a herceg érdeklődése megszállottsággá válik. Uhl, a város főfelügyelője (Paul Giamatti) hirtelen egy sokkoló bűncselekmény kellős közepén találja magát, és miközben Leopold megbízásából egyre közelebbről figyeli a mágust, Eisenheim élete legnagyobb és legmesteribb trükkjét készül végrehajtani.

    Díjak és jelölések:

    Oscar-díj (2007) - Legjobb operatőr jelölés: Dick Pope










    Admin
    Admin
    Admin

    Hozzászólások száma : 493
    Join date : 2012. Feb. 06.
    Age : 68
    Tartózkodási hely : Bp.

    A szajré (The Score) 2001.| Szinkronos amerikai krimi |DvdRip |data.hu

    Témanyitás  Admin on Szer. Ápr. 04, 2012 6:53 pm









    A szajré (The Score) 2001. - Datán

    színes, magyarul beszélő, amerikai krimi, 123 perc, 2001


    Rendezte:
    Frank Oz

    szereplő(k):
    Robert De Niro (Nick Wells)
    Marlon Brando (Max)
    Edward Norton (Jack Teller)
    Angela Bassett (Diane)
    Gary Farmer (Burt)
    Martin Drainville (Jean-Claude)
    Richard Waugh (Sapperstein)

    Relase:
    "A.szajre.2001.RETAIL.DVDRip.Xvid.Hun-rtz6"
    *****************************************************************
    Codec ID : XVID
    Codec ID/Hint : XviD
    Duration : 56mn 33s
    Bit rate : 1 268 Kbps
    Width : 608 pixels
    Height : 256 pixels
    Display aspect ratio : 2.40:1
    Frame rate : 25.000 fps
    Color space : YUV
    Chroma subsampling : 4:2:0
    Bit depth : 8 bits
    Scan type : Progressive
    Compression mode : Lossy
    Bits/(Pixel*Frame) : 0.326
    Stream size : 513 MiB (73%)
    Writing library : XviD 1.2.0.dev47 (UTC 2006-11-01)

    Audio
    ID : 1
    Format : AC-3
    Format/Info : Audio Coding 3
    Mode extension : CM (complete main)
    Codec ID : 2000
    Duration : 56mn 33s
    Bit rate mode : Constant
    Bit rate : 448 Kbps
    Channel(s) : 6 channels
    *****************************************************************






    A film rövid tartalma:
    A sötét szobában csak egy zseblámpa világítja meg a széfet. A fúró tompa zaját elnyomja a lentről felszüremlő ütemes dübörgés. Fémforgácsok hullnak a padlóra, feltárul a páncélszekrény ajtaja... Nck Wells eltökélte: visszavonul, ez volt az utolsó szajré. Összeköltözik barátnőjével, Diane-nel, és törvényes üzletére, a montreáli jazzklubra koncentrál. Azonban Maxnek, aki Nick barátja, üzlettársa és orgazdája, más tervei vannak. Rábeszéli a szakma legnagyobb profiját, hogy szegje meg a két legfontosabb szabályt - "mindig egyedül dolgozz, és soha ne dolgozz abban a városban, ahol élsz," - és összehozza őt Jack Tellerrel. A fiatal, rámenős és tehetséges tolvajnak Nick kasszafúró tudományára van szüksége, hogy megcsinálja élete első nagy szajréját: egy milliókat érő műkincset, melyet a Montreáli Vámház falai mögött őriznek. Ebben a robbanásveszélyes kombinációban állandóan ott lappang a rivalizálás, de a balhé izgalma úrrá lesz mindhárom férfin, és egyikük sem adja fel, bármekkora legyen is a kockázat.










    Admin
    Admin
    Admin

    Hozzászólások száma : 493
    Join date : 2012. Feb. 06.
    Age : 68
    Tartózkodási hely : Bp.

    Pókerarcok (Rounders) 1998.| Szinkronos amerikai krimi |BDRip |data.hu

    Témanyitás  Admin on Szer. Ápr. 04, 2012 7:01 pm








    Pókerarcok (Rounders) 1998. - Datán

    színes, magyarul beszélő, amerikai krimi, 116 perc, 1998


    Rendezte:
    John Dahl

    szereplő(k):
    Matt Damon (Mike McDermott)
    Famke Janssen (Petra)
    Edward Norton (Lester Murphy)
    John Malkovich (Teddy)
    Martin Landau (Petrovsky professzor)
    Gretchen Mol (Jo)
    John Turturro (Joey Knish)

    Relase:
    "Pokerarcok.1998.DUAL.BDRip.XviD-HDTV"
    *****************************************************************
    Codec ID : XVID
    Codec ID/Hint : XviD
    Duration : 1h 55mn
    Bit rate : 1 882 Kbps
    Width : 720 pixels
    Height : 304 pixels
    Display aspect ratio : 2.35:1
    Frame rate : 25.000 fps
    Original frame rate : 23.976 fps
    Color space : YUV
    Chroma subsampling : 4:2:0
    Bit depth : 8 bits
    Scan type : Progressive
    Compression mode : Lossy
    Bits/(Pixel*Frame) : 0.344
    Stream size : 1.52 GiB (83%)
    Writing library : XviD 1.2.1 (UTC 2008-12-04)

    Audio
    ID : 1
    Format : AC-3
    Format/Info : Audio Coding 3
    Mode extension : CM (complete main)
    Codec ID : 2000
    Duration : 1h 55mn
    Bit rate mode : Constant
    Bit rate : 384 Kbps
    Channel(s) : 6 channels
    *****************************************************************






    A film rövid tartalma:
    A profi zsugások azt vallják: a megélhetésért játszani van olyan meló, mint bármi más. Nem hazardírozol. Tutira mész. A cél, hogy óránként bekaszálj egy nagy tétet. Ennyi. Ha jól jár a lap, beszeded a pénzt, ha rosszul jár, ülsz rajta. Nem kockáztatsz. Így fizettem két évig a jogi egyetemet. Ilyen az igazi verklis. A New York-i pókeralvilágban játszódó történet egy fiúról szól, aki álmát a kártyaasztalnál próbálja valóra válni. A zsugás Mike McDermott (Matt Damon) feladja pókerszenvedélyét. Beiratkozik a jogi egyetemre, mert számára ez a biztos út a sikeres életbe. Csakhogy hiányzik belőle a titkos hátsó szobák pókercsatáinak izgalma, és amikor régi barátját, Férget (Edward Norton)kiengedik a börtönből, Mike-nak szembe kell néznie a nehéz és kockázatos dilemmával, hogy visszatérjen-e a zsugások világába a barátja kedvéért.











    A hozzászólást Admin összesen 1 alkalommal szerkesztette, legutóbb Szer. Ápr. 04, 2012 9:06 pm-kor.

    Admin
    Admin
    Admin

    Hozzászólások száma : 493
    Join date : 2012. Feb. 06.
    Age : 68
    Tartózkodási hely : Bp.

    Stone 2010.| Szinkronos amerikai filmdráma |BDRip |data.hu

    Témanyitás  Admin on Szer. Ápr. 04, 2012 7:43 pm









    Stone 2010. - Datán

    színes, magyarul beszélő, amerikai filmdráma, 105 perc, 2010


    Rendezte:
    John Curran

    szereplő(k):
    Robert De Niro (Jack Maybury)
    Edward Norton (Stone)
    Milla Jovovich (Lucetta)
    Enver Gjokaj (a fiatal Jack)
    Frances Conroy
    Liam Ferguson (ügyvéd)

    Relase:
    "Stone.2010.BDRiP.XviD.HuN-MWT"
    *****************************************************************
    Codec ID : XVID
    Codec ID/Hint : XviD
    Duration : 1h 45mn
    Bit rate : 1 580 Kbps
    Width : 720 pixels
    Height : 304 pixels
    Display aspect ratio : 2.35:1
    Frame rate : 23.976 fps
    Color space : YUV
    Chroma subsampling : 4:2:0
    Bit depth : 8 bits
    Scan type : Progressive
    Compression mode : Lossy
    Bits/(Pixel*Frame) : 0.301
    Stream size : 1.16 GiB (78%)
    Writing library : XviD 64

    Audio
    ID : 1
    Format : AC-3
    Format/Info : Audio Coding 3
    Mode extension : CM (complete main)
    Codec ID : 2000
    Duration : 1h 45mn
    Bit rate mode : Constant
    Bit rate : 448 Kbps
    Channel(s) : 6 channels
    *****************************************************************






    A film rövid tartalma:
    Jack Mabryt (Robert De Niro), a feltételes szabadlábra helyezéseket intéző tisztet néhány héten belül nyugdíjazzák. Minden ügyét le szeretné zárni, így kerül elé Gerald "Stone" Creeson (Edward Norton), a gyújtogató aktája is. Stone saját nagyszüleit gyilkolta meg, és ez az egy esélye van arra, hogy bebizonyítsa: megváltozott. Szabadulása érdekében megkísérli befolyásolni Mabryt. Ötlete, hogy felesége (Milla Jovovich) elképesztő báját és készségességét használja fel az öregúrnál, mindannyiuk életét megváltoztatja. A törvény emberét és a törvényen kívüli börtöntölteléket elválasztó határ hajszálvékonnyá válik.










    Admin
    Admin
    Admin

    Hozzászólások száma : 493
    Join date : 2012. Feb. 06.
    Age : 68
    Tartózkodási hely : Bp.

    Az olasz meló (The Italian Job) 2003.| Szinkronos amerikai akcióthriller |BDRip |data.hu

    Témanyitás  Admin on Szer. Ápr. 04, 2012 7:50 pm









    Az olasz meló (The Italian Job) 2003. - Datán

    színes, magyarul beszélő, amerikai-francia-angol akcióthriller, 111 perc, 2003


    Rendezte:
    F. Gary Gray

    szereplő(k):
    Mark Wahlberg (Charlie Croker)
    Charlize Theron (Stella)
    Edward Norton (Steve)
    Seth Green (Lyle)
    Jason Statham (Rob)

    Relase:
    "The.Italian.Job.2003.HUN.BDRip.Xvid-ZHR"
    *****************************************************************
    Codec ID : XVID
    Codec ID/Hint : XviD
    Duration : 1h 50mn
    Bit rate : 1 539 Kbps
    Width : 720 pixels
    Height : 304 pixels
    Display aspect ratio : 2.35:1
    Frame rate : 23.976 fps
    Color space : YUV
    Chroma subsampling : 4:2:0
    Bit depth : 8 bits
    Scan type : Progressive
    Compression mode : Lossy
    Bits/(Pixel*Frame) : 0.293
    Stream size : 1.19 GiB (80%)
    Writing library : XviD 1.0.3 (UTC 2004-12-20)

    Audio
    ID : 1
    Format : AC-3
    Format/Info : Audio Coding 3
    Mode extension : CM (complete main)
    Codec ID : 2000
    Duration : 1h 50mn
    Bit rate mode : Constant
    Bit rate : 384 Kbps
    Channel(s) : 6 channels
    *****************************************************************






    A film rövid tartalma:
    Charlie Crocker agya a legtökéletesebb rablásokat terveli ki. A megvalósítás sikere viszont már emberein múlik. Egyszer számított csak rosszul: amikor Velencében egyik embere lelépett az egész szajréval. Egy évvel később Los Angelesben bukkan a rabolt arany nyomára. Úgy akarja visszarabolni jogos jussát és kereket oldani, hogy közben a város történetének legnagyobb forgalmi dugóját produkálja. Új bandáját egy számítógépes zseni, egy veterán páncélszekrény szakértő és egy pirotechnikus alkotja, akikhez csatlakoznak a bennfentesek és egy csinos hölgy, Stella, akinek kötélből vannak az idegei. Indulhat a bosszú.

    Az elmés megoldásokkal teli izgalmas film a krimi műfaj egyik 1969-es klasszikusának újraforgatott változata, Michael Caine nélkül.








    Admin
    Admin
    Admin

    Hozzászólások száma : 493
    Join date : 2012. Feb. 06.
    Age : 68
    Tartózkodási hely : Bp.

    Amerikai história X (1999). | Szinkronizált amerikai filmdráma | DVDRip. 117 perc | data.hu

    Témanyitás  Admin on Szer. Ápr. 04, 2012 7:52 pm








    Amerikai história X (1999) - Datán.


    színes, magyarul beszélő, amerikai filmdráma, 117 perc, 1998


    Rendezte:
    Tony Kaye

    szereplő(k):
    Edward Norton (Derek Vinyard)
    Edward Furlong (Danny)
    Beverly D'Angelo (Doris Vinyard)
    Jennifer Lien (Davina Vinyard)
    Ethan Suplee (Seth)
    Avery Brooks (Bob Sweeney)
    Stacy Keach (Cameron)
    Fairuza Balk (Stacy)
    Elliott Gould (Murray)
    Guy Torry (Lamont)
    William Russ (Dennis Vinyard)



    Kód:
    http://www.imdb.com/title/tt1059884/

    Relase:

    "Amerikai.historia.X.1998.Hun.Eng.DVDRip.Xvid-LFC"

    *****************************************************************
    Codec ID : XVID
    Codec ID/Hint : XviD
    Duration : 55mn 25s
    Bit rate : 1 123 Kbps
    Width : 624 pixels
    Height : 336 pixels
    Display aspect ratio : 1.857
    Frame rate : 25.000 fps
    Color space : YUV
    Chroma subsampling : 4:2:0
    Bit depth : 8 bits
    Scan type : Progressive
    Compression mode : Lossy
    Bits/(Pixel*Frame) : 0.214
    Stream size : 445 MiB (63%)
    Writing library : XviD 1.2.0.dev47 (UTC 2006-11-01)

    Audio #1
    ID : 1
    Format : AC-3
    Format/Info : Audio Coding 3
    Mode extension : CM (complete main)
    Codec ID : 2000
    Duration : 55mn 25s
    Bit rate mode : Constant
    Bit rate : 192 Kbps
    Channel(s) : 2 channels
    *****************************************************************









    A film rövid tartalma:
    "Az én Mein Kampfom" - ezzel a dolgozattal sokkolja tanárait Danny Vinyard, aki egyébként kiváló tanuló. Talán ez az iromány adta a végső lökést, hogy bálványozott bátya, Derek, aki apjuk meggyilkolása óta csak a gyűlölet filozófiája és gyakorlata szerint él, egy hihetetlenül kegyetlen faji gyilkosságot kövessen el, amely "példaértékű" lesz a neonácik, skinhead bandák és a hatóságok előtt is. A rácsok mögött Derek fokozatosan ráébred az erőszak kétarcúságára. Felismeri az örök igazságot: a gyűlölet mindig visszaszáll arra, akitől ered.

    Díjak és jelölések:
    Oscar-díj (1999) - Legjobb férfi alakítás jelölés: Edward Norton

    ---------------------------------------------------------------------








    NÉZD MEG A TÖBBI FELTÖLTÉSEMET IS!



    A hozzászólást Admin összesen 2 alkalommal szerkesztette, legutóbb Hétf. Ápr. 09, 2012 7:53 am-kor.

    Admin
    Admin
    Admin

    Hozzászólások száma : 493
    Join date : 2012. Feb. 06.
    Age : 68
    Tartózkodási hely : Bp.

    Az utolsó éjjel (25th Hour) 2002.| Szinkronos amerikai krimi |DVDRip |data.hu

    Témanyitás  Admin on Szer. Ápr. 04, 2012 8:06 pm









    Az utolsó éjjel (25th Hour) 2002. - Datán

    színes, magyarul beszélő, amerikai krimi, 135 perc, 2002


    Rendezte:
    Spike Lee

    szereplő(k):
    Edward Norton (Monty Brogan)
    Philip Seymour Hoffman (Jakob Elinsky)
    Barry Pepper (Frank Slaughtery)
    Rosario Dawson (Naturelle Riviera)
    Anna Paquin (Mary D'Annunzio)
    Brian Cox (James Brogan)
    Tony Siragusa (Kostya Novotny)

    Relase:
    "25th.Hour.2002.HUN.DVDRip.XviD-HXT"
    *****************************************************************
    Codec ID : XVID
    Codec ID/Hint : XviD
    Duration : 1h 3mn
    Bit rate : 1 141 Kbps
    Width : 688 pixels
    Height : 288 pixels
    Display aspect ratio : 2.40:1
    Frame rate : 25.000 fps
    Color space : YUV
    Chroma subsampling : 4:2:0
    Bit depth : 8 bits
    Scan type : Progressive
    Compression mode : Lossy
    Bits/(Pixel*Frame) : 0.230
    Stream size : 519 MiB (74%)
    Writing library : XviD 1.1.0 (UTC 2005-11-22)

    Audio
    ID : 1
    Format : AC-3
    Format/Info : Audio Coding 3
    Mode extension : CM (complete main)
    Codec ID : 2000
    Duration : 1h 3mn
    Bit rate mode : Constant
    Bit rate : 384 Kbps
    Channel(s) : 6 channels
    *****************************************************************








    A film rövid tartalma:
    Monty Brogan (Edward Norton) számára vészesen fogy az idő - 24 órán belül börtönbe vonul, hogy letöltse hétéves büntetését. Manhattan egykori királyaként Montynak most búcsút kell vennie attól a világtól, amely megnyitotta előtte az utat New York legmenőbb klubjaiba, de amely megfosztotta legközelebbi barátaitól. Utolsó szabadon töltött napján Monty újra felkeresi apját (Brian Cox), aki soha nem hagyta cserben, és találkozik két régi jóbarátjával, Jacobbal (Philip Seymour Hoffman) és Slaughteryvel (Barry Pepper). Vele van barátnője, Naturelle is (Rosario Dawson) - talán éppen ő volt az, aki feladta a rendőrségnek...

    Az elismert rendező, Spike Lee (Szemet szemért, "Malcolm X") ezúttal egy olyan, nehézéletű emberről beszél, akit rengeteg kétely gyötör azzal kapcsolatban, hogyan is juthatott idáig, miközben az utolsó utáni pillanatban is küzd, hogy visszanyerje egykori énjét...

    Díjak és jelölések:

    Berlini Nemzetközi Filmfesztivál (2003) - Arany Medve jelölés: Spike Lee
    Golden Globe díj (2003) - Legjobb filmzene jelölés: Terence Blanchard




    "Nagyon nagy film"








    Admin
    Admin
    Admin

    Hozzászólások száma : 493
    Join date : 2012. Feb. 06.
    Age : 68
    Tartózkodási hely : Bp.

    A zsaruk becsülete 2008.| Szinkronos amerikai krimi |BDRip |data.hu

    Témanyitás  Admin on Szer. Ápr. 04, 2012 8:25 pm








    A zsaruk becsülete (Pride and Glory) 2008. - Datán

    színes, magyarul beszélő, amerikai krimi, 133 perc, 2008


    Rendezte:
    Gavin O'Connor

    szereplő(k):
    Edward Norton (Ray Tierney)
    Colin Farrell (Jimmy Egan)
    Noah Emmerich (Francis Tierney)
    Jennifer Ehle (Abby Tierney)
    Chris Astoyan (Rob Beren)
    Lake Bell (Megan Egan)
    Jon Voight (Francis Tierney Sr.)

    Relase:
    "A.zsaruk.becsulete.2008.BDRip.XviD.Hun-lencse"
    *****************************************************************
    Codec ID : XVID
    Codec ID/Hint : XviD
    Duration : 1h 5mn
    Bit rate : 1 874 Kbps
    Width : 720 pixels
    Height : 400 pixels
    Display aspect ratio : 16:9
    Frame rate : 23.976 fps
    Color space : YUV
    Chroma subsampling : 4:2:0
    Bit depth : 8 bits
    Scan type : Progressive
    Compression mode : Lossy
    Bits/(Pixel*Frame) : 0.271
    Stream size : 879 MiB (80%)
    Writing library : XviD 1.2.1 (UTC 2008-12-04)

    Audio
    ID : 1
    Format : AC-3
    Format/Info : Audio Coding 3
    Mode extension : CM (complete main)
    Codec ID : 2000
    Duration : 1h 5mn
    Bit rate mode : Constant
    Bit rate : 448 Kbps
    Channel(s) : 6 channels
    *****************************************************************








    A film rövid tartalma:
    Az egyik kábítószer-razzia tragikus következményekkel jár New Yorkban. A bűnözők négy zsarut kelepcébe csalnak és a kialakult tűzharcban kettő közülük életét veszti, a másik kettő pedig életveszélyes sérüléseket szenved. Az eset kivizsgálásával Ray Tierney nyomozót bízzák meg. Ray régi zsarufamília tagja, a családban apáról fiúra száll az egyenruha tisztelete. A nyomozást nehezíti, hogy az áldozatoknak Ray bátyja volt a parancsnoka, míg a sógora gyakran velük járőrözött. Minél mélyebbre ás Ray az ügyben, annál feszültebb lesz köztük a viszony. Az ifjú hamarosan választás elé kerül.








    A hozzászólást Admin összesen 1 alkalommal szerkesztette, legutóbb Csüt. Ápr. 05, 2012 6:07 pm-kor.

    Admin
    Admin
    Admin

    Hozzászólások száma : 493
    Join date : 2012. Feb. 06.
    Age : 68
    Tartózkodási hely : Bp.

    Harcosok klubja (Fight Club) 1999.| Szinkronos amerikai krimi |BRRip |data.hu

    Témanyitás  Admin on Szer. Ápr. 04, 2012 8:33 pm









    Harcosok klubja (Fight Club) 1999. - Datán

    színes, magyarul beszélő, amerikai filmdráma, 139 perc, 1999


    Rendezte:
    David Fincher

    szereplő(k):
    Edward Norton (Jack)
    Brad Pitt (Tyler Durden)
    Helena Bonham Carter (Marla Singer)
    Meat Loaf (Robert 'Bob' Paulson)
    Jared Leto (Angel Face)
    Zach Grenier (Richard Chesler)

    Relase:
    "Harcosok.klubja.1999.BRRip.XviD.Hun-HDTV"
    *****************************************************************
    Codec ID : XVID
    Codec ID/Hint : XviD
    Duration : 1h 6mn
    Bit rate : 2 338 Kbps
    Width : 720 pixels
    Height : 304 pixels
    Display aspect ratio : 2.35:1
    Frame rate : 25.000 fps
    Original frame rate : 23.976 fps
    Color space : YUV
    Chroma subsampling : 4:2:0
    Bit depth : 8 bits
    Scan type : Progressive
    Compression mode : Lossy
    Bits/(Pixel*Frame) : 0.427
    Stream size : 1.09 GiB (92%)
    Writing library : XviD 1.1.2 (UTC 2006-11-01)

    Audio
    ID : 1
    Format : AC-3
    Format/Info : Audio Coding 3
    Mode extension : CM (complete main)
    Codec ID : 2000
    Duration : 1h 6mn
    Bit rate mode : Constant
    Bit rate : 192 Kbps
    Channel(s) : 2 channels
    *****************************************************************








    A film rövid tartalma:
    Amerika nagyvárosainak pincéiben egy titkos szervezet működik: ha egy éjjel az utca összes nyilvános telefonja összetörik, ők jártak ott; ha egy köztéri szobor óriás fémgömbje legurul talapzatáról, és szétrombol egy gyorsétkezdét, az az ő művük; ha egy elegáns bank parkolójának összes autóját rettentően összerondítják a galambok - az sem véletlen. Vigyáznak a leveleinkre, átveszik telefonüzeneteinket, kísérnek az utcán: és még csak készülnek a végső dobásra: a nagy bummra... Pedig az egészet csak két túlzottan unatkozó jóbarát találta ki: azzal kezdték, hogy rájöttek, nincs jobb stresszoldó, mint ha alaposan megverik egymást. Pofonokat adni jó. Pofonokat kapni jó. Számukra ez a boldog élet szabálya.

    A történetet egy jól szituált, de cinikus és kiábrándult fiatalember meséli el. Nevét nem tudjuk, néha Jacknek (Edward Norton) hívja magát. Önismereti terápiás csoportokba jár, mégsem kerül közelebb valódi énjéhez és embertársaihoz. Véletlenül összeismerkedik Tylerrel (Brad Pitt), akiben felfedezi hiányzó tulajdonságait. Tyler egy különös, titkos társaság megalapításával próbál megszállottan úrrá lenni a világ káoszán. A Harcosok Klubjának híre hamar elterjed a túl hamar meggazdagodott menedzser nemzedék tagjai között, akik egyre intenzívebb élményekre várnak. Az egyetlen, aki a két rokonlélek közé ékelődik, egy nő. Marla (Helena Bonham Carter) kétségbe vonja Tyler erőltetetten férfias ideológiáját.


    Díjak és jelölések:

    Oscar-díj (2000) - Legjobb hangvágás jelölés








    Admin
    Admin
    Admin

    Hozzászólások száma : 493
    Join date : 2012. Feb. 06.
    Age : 68
    Tartózkodási hely : Bp.

    Legbelső félelem (Primal Fear) 1996.| Szinkronos amerikai thriller |DVDRip |data.hu

    Témanyitás  Admin on Szer. Ápr. 04, 2012 8:43 pm









    Legbelső félelem (Primal Fear) 1996. - Datán

    színes, magyarul beszélő, amerikai thriller, 124 perc, 1996


    Rendezte:
    Gregory Hoblit

    szereplő(k):
    Richard Gere (Martin Vail)
    Edward Norton (Aaron Stampler)
    Laura Linney (Janet Venable)
    John Mahoney (John Shaughnessy)
    Alfre Woodard (Miriam Shoat bíró)
    Frances McDormand (Dr. Molly Arrington)
    Steven Bauer (Joey Pinero)
    Maura Tierney (Naomi Chance)

    Relase:
    "Legbelso.felelem.1996.HUN.DVDRip.XviD-capuletto"
    *****************************************************************
    Codec ID : XVID
    Codec ID/Hint : XviD
    Duration : 1h 4mn
    Bit rate : 1 291 Kbps
    Width : 672 pixels
    Height : 368 pixels
    Display aspect ratio : 16:9
    Frame rate : 25.000 fps
    Color space : YUV
    Chroma subsampling : 4:2:0
    Bit depth : 8 bits
    Scan type : Progressive
    Compression mode : Lossy
    Bits/(Pixel*Frame) : 0.209
    Stream size : 591 MiB (85%)
    Writing library : XviD 1.2.0.dev47 (UTC 2006-11-01)

    Audio
    ID : 1
    Format : AC-3
    Format/Info : Audio Coding 3
    Format profile : Dolby Digital
    Mode extension : CM (complete main)
    Codec ID : 2000
    Duration : 1h 4mn
    Bit rate mode : Constant
    Bit rate : 224 Kbps
    Channel(s) : 2 channels
    *****************************************************************








    A film rövid tartalma:
    A tárgyalótermi légkörben játszódó filmek holtbiztos ismertetőjegye a mesterien adagolt feszültség és a kikezdhetetlen logika. Az alapanyagokból e történetben sincs hiány. Martin sikeres, arrogáns és jóképű ügyvéd, aki bármikor vállalja a harcot, ha annak elég hangos médiavisszhangot lehet teremteni. Elvállalja egy vad utcagyerek képviseletét, akit Chicago egyik legbefolyásosabb emberének meggyilkolásával gyanúsítanak. Nem humanitárius szempontok vezérlik, nem is az igazság keresése: ő saját verzióját szeretné előadni az igazságról. Volt főnökén is bosszút szeretne állni, ráadásul a vád képviselője sem közömbös számára érzelmileg: Janet és Martin korábban szenvedélyes szeretők voltak. A sokfelé aprózott feszült figyelem megtéveszti Martin érzékeit: nem veszi észre a számára készített csapdát.


    Díjak és jelölések:

    Golden Globe díj (1997) - Legjobb férfi mellékszereplő: Edward Norton
    BAFTA-díj (1997) - Legjobb férfi mellékszereplő jelölés: Edward Norton
    Oscar-díj (1997) - Legjobb férfi mellékszereplő jelölés: Edward Norton








    Admin
    Admin
    Admin

    Hozzászólások száma : 493
    Join date : 2012. Feb. 06.
    Age : 68
    Tartózkodási hely : Bp.

    San Fernando völgye 2005.| Szinkronos amerikai krimi |BDRip |data.hu

    Témanyitás  Admin on Csüt. Ápr. 05, 2012 6:21 pm








    San Fernando völgye (Down in the Valley) 2005. - Datán

    színes, magyarul beszélő, amerikai filmdráma, 114 perc, 2005


    Rendezte:
    David Jacobson

    szereplő(k):
    Edward Norton (Harlan)
    Evan Rachel Wood (Tobe)
    David Morse (Wade)
    Rory Culkin (Lonnie)
    Bruce Dern (Charlie)
    Geoffrey Lewis (Sheridan)
    John Diehl (Steve)

    Relase:
    "San.Fernando.Volgye.2005.INT.DVDRip.HUN.Xvid-EVOlution"
    *****************************************************************
    Codec ID : XVID
    Codec ID/Hint : XviD
    Duration : 57mn 8s
    Bit rate : 1 326 Kbps
    Width : 624 pixels
    Height : 256 pixels
    Display aspect ratio : 2.40:1
    Frame rate : 25.000 fps
    Color space : YUV
    Chroma subsampling : 4:2:0
    Bit depth : 8 bits
    Scan type : Progressive
    Compression mode : Lossy
    Bits/(Pixel*Frame) : 0.332
    Stream size : 542 MiB (77%)
    Writing library : XviD 1.2.0.dev47 (UTC 2006-11-01)

    Audio
    ID : 1
    Format : AC-3
    Format/Info : Audio Coding 3
    Mode extension : CM (complete main)
    Codec ID : 2000
    Duration : 57mn 8s
    Bit rate mode : Constant
    Bit rate : 384 Kbps
    Channel(s) : 6 channels
    *****************************************************************








    A film rövid tartalma:
    A főszereplő Harlan (Edward Norton) valódi cowboynak képzeli magát, és hogy ebben a hitében megmaradhasson, néha csalnia és hazudoznia kell, amely talán kicsit veszélyes is. Harlan szabadságvágyó, temperamentumos férfi, akit csakis az érzései és az igaz világba vetett kissé naiv hite irányítanak. Hősünk szerelmes lesz, és innentől kezdve mindent megtesz, hogy szíve választottjával boldogan élhessenek, míg meg nem halnak. A reális korlátokat nem tudomásul véve próbálja leküzdeni az akadályokat, melyek közül a legfőbbet a lány apja jelenti (David Morse), akinek a legkevésbé sem nyeri el a tetszését a cowboykalapos udvarló.








    Admin
    Admin
    Admin

    Hozzászólások száma : 493
    Join date : 2012. Feb. 06.
    Age : 68
    Tartózkodási hely : Bp.

    Színes fátyol (The Painted Veil)2006.| Szinkronos amerikai romantikus|DVDRip |data.hu

    Témanyitás  Admin on Vas. Ápr. 08, 2012 9:41 am










    Színes fátyol (The Painted Veil)2006. - Datán

    színes, magyarul beszélő, kínai-amerikai romantikus dráma, 125 perc, 2006


    Rendezte:
    John Curran

    szereplő(k):
    Naomi Watts (Kitty Fane)
    Edward Norton (Walter Fane)
    Liev Schreiber (Charlie Townsend)
    Toby Jones (Waddington)
    Gesang Meiduo (Amah)




    Kód:
    http://www.imdb.com/title/tt0446755/

    Relase:
    "The.Painted.Veil.2006.HUN.DVDRip.XviD-JOULUPUKKi"


    *****************************************************************
    Codec ID : XVID
    Codec ID/Hint : XviD
    Duration : 1h 0mn
    Bit rate : 1 160 Kbps
    Width : 640 pixels
    Height : 272 pixels
    Display aspect ratio : 2.40:1
    Frame rate : 25.000 fps
    Color space : YUV
    Chroma subsampling : 4:2:0
    Bit depth : 8 bits
    Scan type : Progressive
    Compression mode : Lossy
    Bits/(Pixel*Frame) : 0.267
    Stream size : 501 MiB (72%)
    Writing library : Lavc51.44.0

    Audio
    ID : 1
    Format : AC-3
    Format/Info : Audio Coding 3
    Mode extension : CM (complete main)
    Codec ID : 2000
    Duration : 1h 0mn
    Bit rate mode : Constant
    Bit rate : 448 Kbps
    Channel(s) : 5 channels
    *****************************************************************








    A film rövid tartalma:
    A középosztálybeli orvos, Walter és az elkényeztetett, felsőosztálybeli Kitty házassága elhibázott döntés volt. Kitty, férje munkája miatt, londoni életét hátrahagyva Sanghajba költözik, ahol rátalál a szerelem a helyi konzul személyében. Miután Walter felfedezi hűtlenségét, büntetésképpen a kolera által legsúlyosabban érintett területen fogad el egy állást, és ragaszkodik hozzá, hogy Kitty is vele tartson. Az utazás a gyönyörű távoli kínai faluba és az ott megélt szörnyűségek értelmet és célt adnak elveszettnek hitt kapcsolatuknak.

    Díjak és jelölések:
    Golden Globe díj (2007) - Legjobb filmzene: Alexandre Desplat








    Admin
    Admin
    Admin

    Hozzászólások száma : 493
    Join date : 2012. Feb. 06.
    Age : 68
    Tartózkodási hely : Bp.

    A hihetetlen Hulk 2008.| Szinkronos amerikai akciófilm|BDRip |data.hu

    Témanyitás  Admin on Vas. Ápr. 08, 2012 9:50 am









    A hihetetlen Hulk (The Incredible Hulk) 2008. - Datán

    színes, magyarul beszélő, amerikai fantasztikus akciófilm, 114 perc, 2008


    Rendezte:
    Louis Leterrier

    szereplő(k):
    Edward Norton (Bruce Banner)
    Liv Tyler (Betty Ross)
    Tim Roth (Emil Blonsky)
    William Hurt (Thaddeus 'Thunderbolt' Ross)
    Robert Downey Jr. (Tony Stark)
    Lou Ferrigno
    Ty Burrell (Dr. Samson)




    Kód:
    http://www.imdb.com/title/tt0800080/

    Relase:
    "The.Incredible.Hulk.2008.HUN.BDRip.XviD-HDEvo"


    *****************************************************************
    Codec ID : XVID
    Codec ID/Hint : XviD
    Duration : 1h 52mn
    Bit rate : 1 287 Kbps
    Width : 640 pixels
    Height : 272 pixels
    Display aspect ratio : 2.35:1
    Frame rate : 23.976 fps
    Color space : YUV
    Chroma subsampling : 4:2:0
    Bit depth : 8 bits
    Scan type : Progressive
    Compression mode : Lossy
    Bits/(Pixel*Frame) : 0.308
    Stream size : 1.01 GiB (74%)
    Writing library : XviD 58

    Audio
    ID : 1
    Format : AC-3
    Format/Info : Audio Coding 3
    Mode extension : CM (complete main)
    Codec ID : 2000
    Duration : 1h 52mn
    Bit rate mode : Constant
    Bit rate : 448 Kbps
    Channel(s) : 6 channels
    *****************************************************************






    A film rövid tartalma:
    Bruce Banner, a tudós kétségbeesetten keresi a gyógymódot arra a gamma-sugárzásra, amely megmérgezte a sejtjeit, és egy fékezhetetlen haragú erőt szabadít fel benne: a Hulkot. Banner kénytelen az árnyékba húzódni, bujkálni, elszakadni attól az élettől, amit ismert, és attól a nőtől, akit szeretett, miközben menekül az őt üldöző "Villám" Ross tábornok és a hadigépezet elől, akik azért üldözik, hogy elkapják, és erejét brutálisan kihasználják. Emellett azonban feltűnik a színen egy új, szörnyű ellenfél, a Förtelem, akinek pusztító ereje még Hulkét is felülmúlja. Hősünknek tehát döntenie kell: vagy elfogadja a tudós békés életét, vagy felfedezi a hőst abban a lényben, aki benne lakozik.









    mykusz
    Töltögető
    Töltögető

    Hozzászólások száma : 12
    Join date : 2012. Apr. 08.

    Re: Edward Norton Filmek.

    Témanyitás  mykusz on Vas. Ápr. 08, 2012 7:03 pm

    Köszi a feltöltést.

    doresz2
    Data - Fájlmegosztó
    Data - Fájlmegosztó

    Hozzászólások száma : 112
    Join date : 2012. Mar. 28.

    Re: Edward Norton Filmek.

    Témanyitás  doresz2 on Vas. Ápr. 15, 2012 12:22 pm

    Köszönöm!

    kixx
    Leskelődő
    Leskelődő

    Hozzászólások száma : 2
    Join date : 2012. Mar. 16.

    Köszi

    Témanyitás  kixx on Kedd. Ápr. 17, 2012 6:10 pm

    Köszi

    ordasmester
    Töltögető
    Töltögető

    Hozzászólások száma : 10
    Join date : 2012. Apr. 18.

    Re: Edward Norton Filmek.

    Témanyitás  ordasmester on Szer. Ápr. 18, 2012 11:04 am

    Köszi a feltöltéseket!

    kocipor66
    Fanatikus
    Fanatikus

    Hozzászólások száma : 45
    Join date : 2012. Mar. 12.

    Re: Edward Norton Filmek.

    Témanyitás  kocipor66 on Csüt. Ápr. 19, 2012 7:34 pm

    Köszönöm:)

    schaby
    Töltögető
    Töltögető

    Hozzászólások száma : 14
    Join date : 2012. Apr. 15.

    Re: Edward Norton Filmek.

    Témanyitás  schaby on Pént. Ápr. 20, 2012 6:28 pm

    köszönöm

    satya6
    Töltögető
    Töltögető

    Hozzászólások száma : 12
    Join date : 2012. Apr. 21.

    Re: Edward Norton Filmek.

    Témanyitás  satya6 on Szomb. Ápr. 21, 2012 8:43 am

    köszönöm

    ipx
    Fanatikus
    Fanatikus

    Hozzászólások száma : 30
    Join date : 2012. Apr. 01.

    Re: Edward Norton Filmek.

    Témanyitás  ipx on Szer. Ápr. 25, 2012 7:45 am

    kösz

    Admin
    Admin
    Admin

    Hozzászólások száma : 493
    Join date : 2012. Feb. 06.
    Age : 68
    Tartózkodási hely : Bp.

    Re: Edward Norton Filmek.

    Témanyitás  Admin on Szer. Máj. 02, 2012 12:20 pm










    Mennyei Királyság (Kingdom of Heaven) 2005. - Datán.


    színes, magyarul beszélő, amerikai-angol-spanyol-német-marokkói kalandfilm, 145 perc, 2005

    Rendezte:
    Ridley Scott

    szereplő(k):
    Orlando Bloom (Balian de Ibelin)
    Jeremy Irons (Tiberias)
    Edward Norton (IV. Balduin)
    Liam Neeson (Godfrey)
    Csókás Márton (Guy de Lusignan)
    David Thewlis (Lovag)
    Ghassan Massoud (Szaladin)
    Eva Green (Sybilla)
    Nathalie Cox (Balian felesége)
    Brendan Gleeson (Reynald)
    Michael Fitzgerald (Humphrey)




    Kód:
    http://www.imdb.com/title/tt0320661/

    Relase:

    "Kingdom.of.Heaven.2005.HUN.BDRip.XviD-HDEvo"

    *****************************************************************
    Codec ID : XVID
    Codec ID/Hint : XviD
    Duration : 2h 24mn
    Bit rate : 1 571 Kbps
    Width : 640 pixels
    Height : 272 pixels
    Display aspect ratio : 2.35:1
    Frame rate : 23.976 fps
    Color space : YUV
    Chroma subsampling : 4:2:0
    Bit depth : 8 bits
    Scan type : Progressive
    Compression mode : Lossy
    Bits/(Pixel*Frame) : 0.376
    Stream size : 1.59 GiB (77%)
    Writing library : XviD 64

    Audio
    ID : 1
    Format : AC-3
    Format/Info : Audio Coding 3
    Mode extension : CM (complete main)
    Codec ID : 2000
    Duration : 2h 24mn
    Bit rate mode : Constant
    Bit rate : 448 Kbps
    Channel(s) : 6 channels
    *****************************************************************







    A film rövid tartalma:
    Balian (Orlando Bloom), a hitét vesztett patkolókovács származása ellenére a Szentföldre utazik, ahol akaratlanul is a háború középpontjába kerül. Ám Jeruzsálem hamis csillogása, a lovagok, Tiberias (Jeremy Irons) és Guy de Lusignan (Csókás Márton) ármánykodása közepette beleszeret a szépséges hercegnőbe, majd vezéralakja lesz az eseményeknek. Végül minden bátorságát és tudását összeszedve megpróbálja megvédeni a várost a legendás Szaladin (Ghassan Massoud) hatalmas seregével szemben.

    ---------------------------------------------------------------------










    NÉZD MEG A TÖBBI FELTÖLTÉSEMET IS!


    vacsati
    Leskelődő
    Leskelődő

    Hozzászólások száma : 8
    Join date : 2012. Feb. 18.

    Re: Edward Norton Filmek.

    Témanyitás  vacsati on Szer. Jún. 27, 2012 1:15 am

    Szép válogatás

    dzsi123
    Fanatikus
    Fanatikus

    Hozzászólások száma : 21
    Join date : 2012. Mar. 17.

    kosz

    Témanyitás  dzsi123 on Szomb. Jún. 30, 2012 5:09 am

    köszi

    Sponsored content

    Re: Edward Norton Filmek.

    Témanyitás  Sponsored content Today at 4:25 pm


      Pontos idő: Pént. Dec. 09, 2016 4:25 pm