Szólj hozzá a témához és letöltheted a tartalmat!

Prémium előfizetésel több szálon, várakozás nélküli letöltés, nagy sebességgel!


    Martin Scorsese rendezésével Filmek.

    Share

    Admin
    Admin
    Admin

    Hozzászólások száma : 493
    Join date : 2012. Feb. 06.
    Age : 68
    Tartózkodási hely : Bp.

    Martin Scorsese rendezésével Filmek.

    Témanyitás  Admin on Hétf. Ápr. 16, 2012 7:04 am

    Martin Scorsese

    Születési név
    Martin Marcantonio Luciano Scorsese

    Született
    Flushing, New York (USA) 1942. november 17. (69 éves)

    Származás
    Amerikai Egyesült Államok

    Házastárs
    Laraine Marie Brennan
    (1965–1971)
    Julia Cameron
    (1976–1977)
    Isabella Rossellini
    (1979–1982)
    Barbara De Fina
    (1985–1991)
    Helen Morris
    (1999–)

    Foglalkozása:
    filmrendező színész forgatókönyvíró

    Díjai
    Legjobb rendező
    A tégla (2006)




    Élete
    Kezdetek
    Súlyos asztmája miatt nem játszhatott a környékbeli gyerekekkel, így gyermekkori évei nagy részét a moziban töltötte. A munkásosztályból származó szüleivel, Charles és Catherine Scorsese-vel New York Little Italy részébe költözött, ahol többnyire szicíliaiak laktak. A katolikus nevelésben részesült Martin eredetileg papnak készült, de rájött, hogy az ő igazi hivatása a mozi. Beiratkozott a New York-i Egyetemre, ahol 1964-ben diplomázott film szakon. 1963-ban készítette első filmjét, egy 9 perces rövidfilmet, aminek címe Mit keres egy ilyen szép lány, egy olyen helyen mint ez? volt. Majd 1969-ben megrendezte első nagyjátékfilmjét a Ki kopog az ajtómon címen. A főszerepet Harvey Keitel játszotta, aki később állandó alkotótársa lett. Scorsese tanított a New York-i Egyetemen, tanítványai közé tartozott Oliver Stone is.

    70-es évek

    A hetvenes években Hollywoodba ment, ahol vágóként dolgozott, és Roger Corman producer vette szárnyai alá. Martin az AIP részére készítette el első nagyjátékfilmjét Boxcar Bertha címen, ami még nem volt méltó a tehetségéhez. Az Aljas utcák azonban már meghozta számára a várva várt sikert. Az önéletrajzi ihletésű filmben népszerű zenéket alkalmazott és egyedi stílustechnikát. A filmben Keitel mellett feltűnt egy fiatal tehetség, Robert De Niro is. Arizónában kezdett hozzá az Alice már nem lakik itt című film forgatásához, 1974-ben. A főszerep Ellen Burstynnek meghozta a legjobb színésznő Oscar-díját. Az 1974-ben készített Italianamerican dokumentumfilmjében feltűntek a szülei is, ez Scorsese kedvenc darabja. Ez évben elkészítette a Taxisofőr című filmjét, Robert De Niróval a főszerepben. Hatalmas kasszasikert értek el vele és négy Oscar-díj jelölés mellett az 1976-os cannes-i filmfesztivál Arany Pálmáját is hazavitte. Ugyanebben az évben megszületett Domenica Cameron Scorsese nevű leánya Julia Camerontól. 1977-ben az első nagy költségvetésű, New York, New York című filmben Liza Minnellit szerepeltette De Niro oldalán. A film ugyan a kritikusok körében nagy tetszést aratott, azonban a mozipénztárakban megbukott. Martin szenvedélybetege lett a kokainnak és 1978-ban a sikeres elvonókúra után a második felesége elvált tőle.

    80-as évek

    1980-ban készítette a Dühöngő bika című klasszikussá vált moziját. Robert De Niro ötlete volt, hogy filmet készítsenek a volt középsúlyú bokszbajnok, Jake La Motta önéletrajzából. A zseniális küzdelmeken túl – fekete fehér hallucinációk villogó vakukkal és brutális ütésekkel, amelyeket Michael Chapman operatőr görkorcsolyán száguldva rögzített-Scorsese számos megható jelenetet mutat. A Dühöngő bika a férfiasságról szól, ami nem kíméli a nőket sem. Robert De Niro, aki 30 kilót hízott a szerep kedvéért megkapta az Oscar-díjat, valamint Telma Schoonmaker is, Martin állandó vágója. 1983-ban a Komédia királya után kezdett neki Krisztus utolsó megkísértése című sokat vitatott filmjének, de csak az előkészítési fázisba jutott anyagi gondok miatt. 1986-ban készítette el A pénz színe című filmjét, amiért Paul Newman megkapta élete első Oscar-díját. 1987-ben elkészíti Michael Jackson Bad című videoklipjét, majd a Pénz színe kasszasikerének köszönhetően megrendezi a három évvel korábban elkezdett Krisztus utolsó megkísértése moziját. A katolikus egyház betiltotta hívei körében, ami csak rásegített a mozipénztárak előtti sorbanállásra.

    90-es évek


    Leonardo DiCaprio, Martin Scorsese és Cameron Diaz Cannes-ban, 2002
    A Nagymenőket (1990) A Keresztapa (1972) mellett a legjobb maffiafilmek között tartják számon, ez Joe Pesci számára is meghozta a rég áhított Oscar-díjat. A társíró, Nicholas Pileggi könyvéből építkező film tömérdek bennfentes adata miatt jóval tényszerűbb, mint a mítoszteremtő A Keresztapa. A rettegés foka remake és az Ártatlanság kora kosztümös darabja után elkészíti 1995-ben a Casino című filmjét, ami egyes kritikusok szerint valójában a Nagymenők remake-je. Scorsese a Nagymenők főszereplőivel és forgatókönyvírójával kerül itt újra össze. A Casino a Las Vegas-i gengszterek életéről szól a hetvenes években, amikor a maffia irányította a játékvárost. A háromórás filmben Scorsese minden stílusjegye felismerhető – bensőséges környezetfestés, hosszú jelenetek, slágerekkel teli filmzene. 1997-ben megkapja az Amerikai Filmintézet Életműdíját.

    2000-es évek

    A 2002-es, New York bandái című 100 millió dolláros költségvetésű mozi, Scorsese addigi legdrágább filmje 10 Oscar-jelölést jelentett, de egyetlen díjat sem kapott meg. Martint az Aviátorért újra jelölték a legjobb rendező díjára, de alulmaradt Clint Eastwooddal szemben a 2005-ös gálán. Két évvel később a két legendás filmes ismét megmérkőzött: ezúttal Scorsese vihette haza az aranyszobrocskát A tégla rendezéséért. Az elismerés 25 évet váratott magára.

    2010-es évek

    2010-ben mutatták be a Leonardo DiCaprio főszereplésével készült Viharsziget című filmjét. Két évvel később A leleményes Hugo (2011) című alkotásával elnyerte a legjobb rendezőknek járó Golden Globe-díjat.


    Leonardo DiCaprio, Martin Scorsese és Cameron Diaz Cannes-ban, 2002

    Válogatott filmjei rendezőként

    A leleményes Hugo (2011)
    Viharsziget (2010)
    Shine a Light (2008)
    A tégla (2006)
    No Direction Home: Bob Dylan – A Martin Scorsese Picture (2005)
    Aviátor (2004)
    New York bandái (2002)
    A holtak útja (1999)
    My Voyage to Italy (1999)
    Kundun (1997)
    Casino (1995)
    Az ártatlanság kora (1993)
    A rettegés foka (1991)
    Nagymenők (1990)
    New York-i történetek (rész) (1989)
    Krisztus utolsó megkísértése (1988)
    A pénz színe (1986)
    Lidérces órák (1985)
    A komédia királya (1983)
    Dühöngő bika (1980)
    Az utolsó valtzer (1978)
    New York, New York (1977)
    Taxisofőr (1976)
    Alice már nem lakik itt (1974)
    Italianamerican (1974)
    Aljas utcák (1973)
    Boxcar Bertha (1972)
    Street Scenes (1970)
    Ki kopog az ajtómon (1967)
    The Big Shave (rövidfilm) (1967)
    Mit keres egy ilyen szép lány, egy olyan helyen mint ez? (1963)

    A filmjeit 1990-napjainking töltöm fel!Extra kérésre rakok régebbit is Smile
    Jó szórakozást hozzá!



    A hozzászólást Admin összesen 1 alkalommal szerkesztette, legutóbb Vas. Júl. 22, 2012 9:01 pm-kor.

    Admin
    Admin
    Admin

    Hozzászólások száma : 493
    Join date : 2012. Feb. 06.
    Age : 68
    Tartózkodási hely : Bp.

    Az ártatlanság kora 1993.| Szinkronos amerikai történelmi dráma| BDRiP.| data.hu

    Témanyitás  Admin on Hétf. Ápr. 16, 2012 8:25 pm










    Az ártatlanság kora (The Age Of Innocence) 1993. - Datán.


    színes, magyarul beszélő, amerikai történelmi dráma, 150 perc, 1993

    Rendezte:
    Martin Scorsese

    szereplő(k):
    Daniel Day-Lewis (Newland Archer)
    Michelle Pfeiffer (Ellen Olenska)
    Winona Ryder (May Welland)
    Richard E. Grant (Larry Lefferts)
    Alec McCowen (Sillerton Jackson)
    Geraldine Chaplin (Mrs. Welland)
    Mary Beth Hurt (Regina Beaufort)
    Jonathan Pryce (Monsieur Riviere)
    Miriam Margolyes (Mrs. Mingott)



    Kód:
    http://www.imdb.com/title/tt0106226/

    Relase:

    "Az artatlansag kora,nincs relase cím bővebben."

    *****************************************************************
    Codec ID : XVID
    Codec ID/Hint : XviD
    Duration : 2h 12mn
    Bit rate : 1 059 Kbps
    Width : 688 pixels
    Height : 288 pixels
    Display aspect ratio : 2.40:1
    Frame rate : 25.000 fps
    Color space : YUV
    Chroma subsampling : 4:2:0
    Bit depth : 8 bits
    Scan type : Progressive
    Compression mode : Lossy
    Bits/(Pixel*Frame) : 0.214
    Stream size : 1 006 MiB (84%)
    Writing library : XviD 1.2.0.dev47 (UTC 2006-11-01)

    Audio
    ID : 1
    Format : AC-3
    Format/Info : Audio Coding 3
    Mode extension : CM (complete main)
    Codec ID : 2000
    Duration : 2h 12mn
    Bit rate mode : Constant
    Bit rate : 192 Kbps
    Channel(s) : 2 channels
    *****************************************************************







    A film rövid tartalma:
    Newland Archer nem sokkal eljegyzése után megismerkedik menyasszonya rokonával, a kétes hírű Ellen Olesnkával. Archer, a helyi előkelő társaság megbecsült tagja saját társadalmi rangját használja arra, hogy helyreállítsa Ellen Olenska megtépázott hírnevét. Azonban az idő múlásával egyre erősebb vonzalom ébred benne az asszony iránt, egyre jobban tetszik neki az, ahogy Ellen szembeszáll a társasági illemmel és a képmutatással. Amikor Newland felismeri saját érzelmeit, úgy dönt, hogy egyre jobban sietteti May Wellanddal kötendő esküvőjét, ám mégis bevallja Ellennek, hogy mit érez iránta. Az asszony azonban tudja, mit jelentene Newland számára egy kompromittáló viszony, s inkább elhagyja New Yorkot.

    Díjak és jelölések:
    BAFTA-díj (1994) - Legjobb női mellékszereplő: Miriam Margolyes
    Golden Globe díj (1994) - Legjobb női mellékszereplő: Winona Ryder
    Oscar-díj (1994) - Legjobb jelmeztervezés: Gabriella Pescucci
    BAFTA-díj (1994) - Legjobb operatőr jelölés: Michael Ballhaus
    BAFTA-díj (1994) - Legjobb női mellékszereplő jelölés: Winona Ryder
    BAFTA-díj (1994) - Legjobb látványtervezés jelölés: Dante Ferretti
    Golden Globe díj (1994) - Legjobb rendező jelölés: Martin Scorsese
    Golden Globe díj (1994) - Legjobb színésznő - drámai kategória jelölés: Michelle Pfeiffer
    Golden Globe díj (1994) - Legjobb film - drámai kategória jelölés
    Oscar-díj (1994) - Legjobb női mellékszereplő jelölés: Winona Ryder
    Oscar-díj (1994) - Legjobb adaptált forgatókönyv jelölés: Martin Scorsese, Jay Cocks
    Oscar-díj (1994) - Legjobb látványtervezés jelölés: Dante Ferretti
    Oscar-díj (1994) - Legjobb filmzene jelölés: Elmer Bernstein
    ---------------------------------------------------------------------










    NÉZD MEG A TÖBBI FELTÖLTÉSEMET IS!


    Admin
    Admin
    Admin

    Hozzászólások száma : 493
    Join date : 2012. Feb. 06.
    Age : 68
    Tartózkodási hely : Bp.

    Cape Fear - A Rettegés foka 1991.| Szinkronos amerikai thriller| BDRiP.| data.hu

    Témanyitás  Admin on Hétf. Ápr. 16, 2012 8:39 pm










    Cape Fear - A Rettegés foka 1991. - Datán.


    színes, magyarul beszélő, amerikai thriller, 128 perc, 1991

    Rendezte:
    Martin Scorsese

    szereplő(k):
    Robert De Niro (Max Cady)
    Nick Nolte (Sam Bowden)
    Jessica Lange (Leigh Bowden)
    Juliette Lewis (Danielle Bowden)
    Joe Don Baker (Claude Kersek)
    Robert Mitchum (Elgart hadnagy)
    Gregory Peck (Lee Heller)
    Martin Balsam (bíró)
    Illeana Douglas (Lori Davis)
    Fred Dalton Thompson (Tom Broadbent)
    Zully Montero (Graciella)



    Kód:
    http://www.imdb.com/title/tt0101540/

    Relase:

    "Cape.Fear.1991.HUN.BDRip.XviD-HDEvo"

    *****************************************************************
    Codec ID : XVID
    Codec ID/Hint : XviD
    Duration : 2h 7mn
    Bit rate : 1 075 Kbps
    Width : 624 pixels
    Height : 272 pixels
    Display aspect ratio : 2.25:1
    Frame rate : 23.976 fps
    Color space : YUV
    Chroma subsampling : 4:2:0
    Bit depth : 8 bits
    Scan type : Progressive
    Compression mode : Lossy
    Bits/(Pixel*Frame) : 0.264
    Stream size : 983 MiB (70%)
    Writing library : XviD 58

    Audio
    ID : 1
    Format : AC-3
    Format/Info : Audio Coding 3
    Mode extension : CM (complete main)
    Codec ID : 2000
    Duration : 2h 7mn
    Bit rate mode : Constant
    Bit rate : 448 Kbps
    Channel(s) : 2 channels
    *****************************************************************







    A film rövid tartalma:
    A pszichopata bűnöző, Max Cady 14 évi börtön után kiszabadul, s csak egyetlen cél lebeg előtte: bosszút állni egykori ügyvédjén, San Bowdenen. Először is odaköltözik Bowdenék közelébe, és megpróbál az ügyvéd feleségének és lányának bizalmába férkőzni. Egy idő után Cady jelenléte nyomasztóvá válik, alakja ott kísért mindenütt, s szinte hatalmába keríti az egyre bizonytalanabbá váló családot. Sam Bowden hamarosan rájön, hogy jogi eszközökkel képtelen megvédelmezni gyönyörű feleségét és kamaszodó lányát, ezért vidékre menekül, ám az egyre ördögibb arcot öltő, semmitől vissza nem riadó Cady ide is követi. Végül Bowdennek Cape Fearnél kell szembenéznie a Gonosszal és akár élete árán is megvédelmeznie családját.

    Díjak és jelölések:
    BAFTA-díj (1993) - Legjobb operatőr jelölés: Freddie Francis
    BAFTA-díj (1993) - Legjobb vágás jelölés: Thelma Schoonmaker
    Berlini Nemzetközi Filmfesztivál (1992) - Arany Medve jelölés: Martin Scorsese
    Golden Globe díj (1992) - Legjobb női mellékszereplő jelölés: Juliette Lewis
    Golden Globe díj (1992) - Legjobb színész - drámai kategória jelölés: Robert De Niro
    Oscar-díj (1992) - Legjobb női mellékszereplő jelölés: Juliette Lewis
    Oscar-díj (1992) - Legjobb férfi alakítás jelölés: Robert De Niro
    ---------------------------------------------------------------------










    NÉZD MEG A TÖBBI FELTÖLTÉSEMET IS!


    Admin
    Admin
    Admin

    Hozzászólások száma : 493
    Join date : 2012. Feb. 06.
    Age : 68
    Tartózkodási hely : Bp.

    Casino 1995.| Szinkronos amerikai életrajzi dráma| BDRiP.| data.hu

    Témanyitás  Admin on Hétf. Ápr. 16, 2012 8:52 pm










    Casino 1995. - Datán.


    színes, magyarul beszélő, amerikai-francia életrajzi dráma, 178 perc, 1995

    Rendezte:
    Martin Scorsese

    szereplő(k):
    Robert De Niro (Sam "Ász" Rothstein)
    Sharon Stone (Ginger McKenna)
    Joe Pesci (Nicky Santoro)
    James Woods (Lester Diamond)
    Alan King (Andy Stone)
    Don Rickles (Billy Sherbert)
    L.Q. Jones (Pat Webb)



    Kód:
    http://www.imdb.com/title/tt0112641/

    Relase:

    "Casino.1995.iNT.HUN.BDRiP.XviD-DWP"

    *****************************************************************
    Codec ID : XVID
    Codec ID/Hint : XviD
    Duration : 1h 3mn
    Bit rate : 1 068 Kbps
    Width : 640 pixels
    Height : 272 pixels
    Display aspect ratio : 2.35:1
    Frame rate : 23.976 fps
    Color space : YUV
    Chroma subsampling : 4:2:0
    Bit depth : 8 bits
    Scan type : Progressive
    Compression mode : Lossy
    Bits/(Pixel*Frame) : 0.256
    Stream size : 488 MiB (70%)
    Writing library : XviD 63

    Audio
    ID : 1
    Format : AC-3
    Format/Info : Audio Coding 3
    Mode extension : CM (complete main)
    Codec ID : 2000
    Duration : 1h 3mn
    Bit rate mode : Constant
    Bit rate : 448 Kbps
    Channel(s) : 6 channels
    *****************************************************************











    A film rövid tartalma:
    Egy brutális történet a pénzről, a szenvedélyről, a kapzsiságról és a beteges ambícióról. Amerikai Egyesült Államok, a hetvenes évek idején. Sam "Ász" Rothesteint, a chicagói hazárdjátékost a maffia Las Vegas-ba küldi, hogy átvegye az egyik kaszinó irányítását, amely naponta több millió dolláros hasznot hoz az alvilági szervezetnek. Samnek a rendet és a bevételt kell felügyelnie. Az "Ász" rövid időn belül komoly összeget gyűjt össze, és megismerkedik Gingerrel, a luxus prostival, akivel hamarosan össze is házasodik. A családalapítás és első gyermeke világrajövetele után, Sam pozíciója megerősödik a maffia hierarchiájában. A gondok akkor kezdődnek, amikor a városban megjelenik gyermekkori barátja, Nicky Santoro, aki a maffia könyörtelen bérgyilkosa, a piszkos munka "szakértője". Az életunt Ginger időközben felújítja ismeretségét volt szeretőjével, aki kábítószerfüggővé teszi őt. A film a hetvenes évek megtörtént eseményeit meséli el. Martin Scorsese megmutatja a szórakoztató ipar sötét oldalát, ahol a hatalmas vagyonokon kívül, az emberi élet a tét.

    Díjak és jelölések:
    Golden Globe díj (1996) - Legjobb színésznő - drámai kategória: Sharon Stone
    Golden Globe díj (1996) - Legjobb rendező jelölés: Martin Scorsese
    Oscar-díj (1996) - Legjobb női alakítás jelölés: Sharon Stone
    ---------------------------------------------------------------------










    NÉZD MEG A TÖBBI FELTÖLTÉSEMET IS!


    Admin
    Admin
    Admin

    Hozzászólások száma : 493
    Join date : 2012. Feb. 06.
    Age : 68
    Tartózkodási hely : Bp.

    New York bandái (Gangs of New York) 2002. | Szinkronizált amerikai akciófilm| BRRip | data.hu

    Témanyitás  Admin on Hétf. Ápr. 16, 2012 9:01 pm









    New York bandái (Gangs of New York) 2002. - Datán.


    színes, magyarul beszélő, amerikai-német-olasz-angol-holland akciófilm, 166 perc, 2002.


    Rendezte:
    Martin Scorsese

    szereplő(k):
    Leonardo DiCaprio (Amsterdam Vallon)
    Daniel Day-Lewis (Hentes Bill)
    Cameron Diaz (Jenny Everdeane)
    Jim Broadbent (William 'Boss' Tweed)
    John C. Reilly (Happy Jack)
    Henry Thomas (Johnny Sirocco)
    Liam Neeson (Vallon)
    Brendan Gleeson (Walter 'Monk' McGinn)
    Gary Lewis (McGloin)

    Relase:

    "New.York.bandai.2002.HUN.BRRip.x264-racis"

    *****************************************************************
    Format : AVC
    Format/Info : Advanced Video Codec
    Format profile : High@L4.1
    Format settings, CABAC : Yes
    Format settings, ReFrames : 4 frames
    Codec ID : V_MPEG4/ISO/AVC
    Duration : 2h 46mn
    Bit rate : 1 500 Kbps
    Width : 1 280 pixels
    Height : 544 pixels
    Display aspect ratio : 2.35:1
    Frame rate : 23.976 fps
    Color space : YUV
    Chroma subsampling : 4:2:0
    Bit depth : 8 bits
    Scan type : Progressive
    Bits/(Pixel*Frame) : 0.090
    Stream size : 1.70 GiB (78%)
    Writing library : x264 core 67 r1145bm d2e1e1c


    Audio
    ID : 3
    Format : AC-3
    Format/Info : Audio Coding 3
    Mode extension : CM (complete main)
    Codec ID : A_AC3
    Duration : 2h 46mn
    Bit rate mode : Constant
    Bit rate : 384 Kbps
    Channel(s) : 6 channels
    *****************************************************************







    A film rövid tartalma:
    Martin Scorsese New York bandái című filmje az 1860-as években, Manhattan déli részén játszódik a forrongások idején. A történet szereplőinek otthona az Öt Pont, Amerika egyik legszegényebb környéke, ahol folyton rivális bandák vívtak háborút az utcák feletti hatalomért. A legkülönbözőbb illegális tevékenységekhez ideális terep volt a New York-i kikötő és a virágzó Wall Street üzleti negyede (itt volt Barnum híres amerikai múzeuma is) közé eső terület. Ekkor játszódik Amsterdam Vallon, egy ifjú ír-amerikai története. Tizenöt év javítóintézet után, mikor végre kiengedik, visszamegy az Öt Ponthoz, hogy bosszút álljon a Hentes Billen, aki édesapját szeme láttára megölte. A bandavezér hatalma azóta csak nőtt, s most még nagyobb kegyetlenséggel harcol az új ír bevándorlók ellen. A tizenöt évvel korábbi döntő győzelmet, melynek az öreg Vallon is áldozatul esett, minden évben megünnepli. A fiú erre a napra vár, hogy méltó bosszút álljon apjáért.

    Díjak és jelölések:
    BAFTA-díj (2003) - Legjobb férfi főszereplő: Daniel Day-Lewis
    Golden Globe díj (2003) - Legjobb rendező: Martin Scorsese
    Golden Globe díj (2003) - Legjobb eredeti filmdal: Bono
    BAFTA-díj (2003) - Legjobb film jelölés: Alberto Grimaldi, Harvey Weinstein
    BAFTA-díj (2003) - Legjobb rendező jelölés: Martin Scorsese
    BAFTA-díj (2003) - Legjobb operatőr jelölés: Michael Ballhaus
    BAFTA-díj (2003) - Legjobb eredeti forgatókönyv jelölés: Steven Zaillian, Kenneth Lonergan, Jay Cocks
    BAFTA-díj (2003) - Legjobb jelmeztervezés jelölés: Sandy Powell
    BAFTA-díj (2003) - Legjobb látványtervezés jelölés: Dante Ferretti
    BAFTA-díj (2003) - Legjobb vizuális effektusok jelölés
    BAFTA-díj (2003) - Legjobb hang jelölés
    BAFTA-díj (2003) - Legjobb vágás jelölés: Thelma Schoonmaker
    BAFTA-díj (2003) - Legjobb smink és maszk jelölés
    BAFTA-díj (2003) - Legjobb filmzene jelölés: Howard Shore
    Golden Globe díj (2003) - Legjobb színésznő - drámai kategória jelölés: Cameron Diaz
    Golden Globe díj (2003) - Legjobb színész - drámai kategória jelölés: Daniel Day-Lewis
    Golden Globe díj (2003) - Legjobb film - drámai kategória jelölés
    Oscar-díj (2003) - Legjobb film jelölés: Harvey Weinstein, Alberto Grimaldi
    Oscar-díj (2003) - Legjobb rendező jelölés: Martin Scorsese
    Oscar-díj (2003) - Legjobb operatőr jelölés: Michael Ballhaus
    Oscar-díj (2003) - Legjobb eredeti forgatókönyv jelölés: Steven Zaillian, Jay Cocks
    Oscar-díj (2003) - Legjobb jelmeztervezés jelölés: Sandy Powell
    Oscar-díj (2003) - Legjobb látványtervezés jelölés: Dante Ferretti
    Oscar-díj (2003) - Legjobb hang jelölés: Tom Fleischman
    Oscar-díj (2003) - Legjobb vágás jelölés: Thelma Schoonmaker
    Oscar-díj (2003) - Legjobb férfi alakítás jelölés: Daniel Day-Lewis
    Oscar-díj (2003) - Legjobb betétdal jelölés: Larry Mullen Jr., The Edge, Bono, Adam Clayton
    ---------------------------------------------------------------------









    NÉZD MEG A TÖBBI FELTÖLTÉSEMET IS!


    Admin
    Admin
    Admin

    Hozzászólások száma : 493
    Join date : 2012. Feb. 06.
    Age : 68
    Tartózkodási hely : Bp.

    A Tégla (The Departed) 2006. | Szinkronizált amerikai filmdráma | BDRip| data.hu

    Témanyitás  Admin on Hétf. Ápr. 16, 2012 9:03 pm









    A Tégla (The Departed) 2006. - Datán.


    színes, magyarul beszélő, amerikai filmdráma, 153 perc, 2006


    Rendezte:
    Martin Scorsese

    szereplő(k):
    Leonardo DiCaprio (Billy Costigan)
    Jack Nicholson (Frank Costello)
    Matt Damon (Colin Sullivan)
    Martin Sheen (Oliver Queenan)
    Vera Farmiga (Madolyn)
    Mark Wahlberg (Dignam)
    Alec Baldwin (Ellerby)


    Relase:

    "A.tegla.2006.BDRip.XviD.Hun-HDTV"

    *****************************************************************
    Codec ID : DX50
    Codec ID/Hint : DivX 5
    Duration : 1h 15mn
    Bit rate : 1 856 Kbps
    Width : 720 pixels
    Height : 304 pixels
    Display aspect ratio : 2.35:1
    Frame rate : 23.976 fps
    Color space : YUV
    Chroma subsampling : 4:2:0
    Bit depth : 8 bits
    Scan type : Progressive
    Compression mode : Lossy
    Bits/(Pixel*Frame) : 0.354
    Stream size : 1 005 MiB (83%)
    Writing library : XviD 1.2.0.dev47 (UTC 2006-11-01)

    Audio
    ID : 1
    Format : AC-3
    Format/Info : Audio Coding 3
    Mode extension : CM (complete main)
    Codec ID : 2000
    Duration : 1h 15mn
    Bit rate mode : Constant
    Bit rate : 384 Kbps
    Channel(s) : 6 channels
    *****************************************************************








    A film rövid tartalma:
    Billy Costigan (Leonardo DiCaprio), a fiatal rendőr beépül Frank Costello (Jack Nicholson) maffiavezér szervezetébe. Miközben Billy azon dolgozik, hogy elnyerje Costello bizalmát, egy másik fiatal rendőr, Colin Sullivan (Matt Damon) is beépül, miután kiderül, hogy a maffia túlságosan is jól értesült a rendőrség akcióiról. Úgy tűnik, a rendőrök között is van egy tégla.

    Díjak és jelölések:
    Golden Globe díj (2007) - Legjobb rendező: Martin Scorsese
    Oscar-díj (2007) - Legjobb film: Graham King
    Oscar-díj (2007) - Legjobb rendező: Martin Scorsese
    Oscar-díj (2007) - Legjobb adaptált forgatókönyv: William Monahan
    Oscar-díj (2007) - Legjobb vágás: Thelma Schoonmaker
    BAFTA-díj (2007) - Legjobb film jelölés
    BAFTA-díj (2007) - Legjobb rendező jelölés: Martin Scorsese
    BAFTA-díj (2007) - Legjobb férfi mellékszereplő jelölés: Jack Nicholson
    BAFTA-díj (2007) - Legjobb adaptált forgatókönyv jelölés: William Monahan
    BAFTA-díj (2007) - Legjobb vágás jelölés: Thelma Schoonmaker
    BAFTA-díj (2007) - Legjobb férfi alakítás jelölés: Leonardo DiCaprio
    Golden Globe díj (2007) - Legjobb férfi mellékszereplő jelölés: Mark Wahlberg, Jack Nicholson
    Golden Globe díj (2007) - Legjobb színész - drámai kategória jelölés: Leonardo DiCaprio
    Golden Globe díj (2007) - Legjobb film - drámai kategória jelölés
    Golden Globe díj (2007) - Legjobb forgatókönyv jelölés: William Monahan
    Oscar-díj (2007) - Legjobb férfi mellékszereplő jelölés: Mark Wahlberg

    ---------------------------------------------------------------------








    NÉZD MEG A TÖBBI FELTÖLTÉSEMET IS!


    mamapapa
    Leskelődő
    Leskelődő

    Hozzászólások száma : 5
    Join date : 2012. Apr. 16.

    Re: Martin Scorsese rendezésével Filmek.

    Témanyitás  mamapapa on Kedd. Ápr. 17, 2012 12:01 am

    köszike

    Admin
    Admin
    Admin

    Hozzászólások száma : 493
    Join date : 2012. Feb. 06.
    Age : 68
    Tartózkodási hely : Bp.

    Holtak útja (Bringing Out the Dead) 1999.| Szinkronos amerikai filmdráma| DVDRip| data.hu

    Témanyitás  Admin on Szer. Ápr. 18, 2012 7:01 am









    Holtak útja (Bringing Out the Dead) 1999. - Datán.


    színes, magyarul beszélő, amerikai filmdráma, 120 perc, 1999

    Rendezte:
    Martin Scorsese

    szereplő(k):
    Nicolas Cage (Frank Pierce)
    Patricia Arquette (Mary Burke)
    John Goodman (Larry)
    Ving Rhames (Marcus)
    Tom Sizemore (Tom Walls)



    Kód:
    http://www.imdb.com/title/tt0163988/

    Relase:

    "Holtak.utja.1999.DVDRip.Xvid.HunDub-BD"

    *****************************************************************
    Codec ID : XVID
    Codec ID/Hint : XviD
    Duration : 57mn 25s
    Bit rate : 1 499 Kbps
    Width : 688 pixels
    Height : 288 pixels
    Display aspect ratio : 2.40:1
    Frame rate : 25.000 fps
    Color space : YUV
    Chroma subsampling : 4:2:0
    Bit depth : 8 bits
    Scan type : Progressive
    Compression mode : Lossy
    Bits/(Pixel*Frame) : 0.303
    Stream size : 616 MiB (88%)
    Writing library : XviD 1.2.0.dev47 (UTC 2006-11-01)

    Audio
    ID : 1
    Format : AC-3
    Format/Info : Audio Coding 3
    Format profile : Dolby Digital
    Mode extension : CM (complete main)
    Codec ID : 2000
    Duration : 57mn 25s
    Bit rate mode : Constant
    Bit rate : 192 Kbps
    Channel(s) : 2 channels
    *****************************************************************









    A film rövid tartalma:
    Ön eddig azt hitte, hogy munkája maga a pokol? Frank (Nicolas Cage) szerette munkáját, de az állandó stressztől kiégett az évek során. Minden telefonhívás lehet egy gyilkosság, akár baleset, emberi tragédia. A manhattani éjszakában Frank társaival mentőzik. Lelkiismeretfurdalás gyötri az elvesztett életek miatt. Sokszor megjelenik előtte egy fél évvel korábban meghalt nő arca, aki megmenthető lett volna. Ki akar lépni munkájából, de valami mégis mindig visszahúzza. Frank és kollégái életét három éjjelen át követhetjük. Larry (John Goodman) örökké éhes, Marcus (Ving Rhames) vallásos fickó, Tom (Tom Sizemore) pedig agresszív egyéniség, ha nem történik semmi...
    Martin Scorsese újra szeretve-gyűlölt városának árnyoldalait mutatja be emberien és mesterien.
    ---------------------------------------------------------------------










    NÉZD MEG A TÖBBI FELTÖLTÉSEMET IS!


    Admin
    Admin
    Admin

    Hozzászólások száma : 493
    Join date : 2012. Feb. 06.
    Age : 68
    Tartózkodási hely : Bp.

    A leleményes Hugo (Hugo) 2011.| Feliratos amerikai családi kalandfilm| DVDRip| data.hu

    Témanyitás  Admin on Szer. Ápr. 18, 2012 7:11 am








    A leleményes Hugo (Hugo) 2011. - Datán.


    színes, feliratos, amerikai családi kalandfilm, 126 perc, 2011
    (Felirat a csomagban.)

    Rendezte:
    Martin Scorsese

    szereplő(k):
    Asa Butterfield (Hugo Cabret)
    Chloe Grace Moretz (Isabelle)
    Jude Law (Hugo apja)
    Christopher Lee (Monsieur Labisse)
    Helen McCrory (Mama Jeanne)
    Emily Mortimer (Lisette)
    Sacha Baron Cohen (állomás-felügyelő)
    Richard Griffiths (Monsieur Frick)
    Sir Ben Kingsley (Georges Mélies)
    Ray Winstone (Claude)
    Michael Stuhlbarg (Rene Tabard)
    Frances de la Tour (Madame Emilie)



    Kód:
    http://www.imdb.com/title/tt0970179/

    Relase:

    "Hugo.2011.DVDRip.XviD-AMIABLE"

    *****************************************************************
    Codec ID : XVID
    Codec ID/Hint : XviD
    Duration : 1h 2mn
    Bit rate : 1 109 Kbps
    Width : 624 pixels
    Height : 352 pixels
    Display aspect ratio : 16:9
    Frame rate : 23.976 fps
    Color space : YUV
    Chroma subsampling : 4:2:0
    Bit depth : 8 bits
    Scan type : Progressive
    Compression mode : Lossy
    Bits/(Pixel*Frame) : 0.211
    Stream size : 494 MiB (71%)
    Writing library : XviD 64

    Audio
    ID : 1
    Format : AC-3
    Format/Info : Audio Coding 3
    Mode extension : CM (complete main)
    Codec ID : 2000
    Duration : 1h 2mn
    Bit rate mode : Constant
    Bit rate : 448 Kbps
    Channel(s) : 6 channels
    *****************************************************************








    A film rövid tartalma:
    A Hugo egy árva kisfiú története, aki egy párizsi pályaudvar falai mögött éli titkos életét. Egy különc lány segítségével keresi a választ a rejtélyre, mely összefügg apja elvesztésével, az alatta lakó mogorva játékboltossal és egy szív alakú lakattal, amelynek, úgy tűnik, nincs meg a kulcsa.

    Díjak és jelölések:
    BAFTA-díj (2012) - Legjobb látványtervezés
    BAFTA-díj (2012) - Legjobb hang
    Golden Globe díj (2012) - Legjobb rendező: Martin Scorsese
    Oscar-díj (2012) - Legjobb operatőr: Robert Richardson
    Oscar-díj (2012) - Legjobb látványtervezés
    Oscar-díj (2012) - Legjobb vizuális effektusok
    Oscar-díj (2012) - Legjobb hangvágás
    Oscar-díj (2012) - Legjobb hangkeverés
    BAFTA-díj (2012) - Legjobb rendező jelölés: Martin Scorsese
    BAFTA-díj (2012) - Legjobb operatőr jelölés: Robert Richardson
    BAFTA-díj (2012) - Legjobb jelmeztervezés jelölés
    BAFTA-díj (2012) - Legjobb vizuális effektusok jelölés
    BAFTA-díj (2012) - Legjobb vágás jelölés: Thelma Schoonmaker
    BAFTA-díj (2012) - Legjobb smink és maszk jelölés
    BAFTA-díj (2012) - Legjobb filmzene jelölés: Howard Shore
    Golden Globe díj (2012) - Legjobb filmzene jelölés: Howard Shore
    Golden Globe díj (2012) - Legjobb film - drámai kategória jelölés
    Oscar-díj (2012) - Legjobb film jelölés: Martin Scorsese, Graham King
    Oscar-díj (2012) - Legjobb rendező jelölés: Martin Scorsese
    Oscar-díj (2012) - Legjobb adaptált forgatókönyv jelölés: John Logan
    Oscar-díj (2012) - Legjobb jelmeztervezés jelölés
    Oscar-díj (2012) - Legjobb vágás jelölés: Thelma Schoonmaker
    Oscar-díj (2012) - Legjobb filmzene jelölés: Howard Shore
    ---------------------------------------------------------------------










    NÉZD MEG A TÖBBI FELTÖLTÉSEMET IS!


    Admin
    Admin
    Admin

    Hozzászólások száma : 493
    Join date : 2012. Feb. 06.
    Age : 68
    Tartózkodási hely : Bp.

    Aviátor (The Aviator) 2004. | Szinkronizált amerikai filmdráma | BDRip| data.hu

    Témanyitás  Admin on Szer. Ápr. 18, 2012 7:15 am










    Aviátor (The Aviator) 2004. - Datán.


    színes, magyarul beszélő, amerikai filmdráma, 170 perc, 2004


    Rendezte:
    Martin Scorsese

    szereplő(k):
    Leonardo DiCaprio (Howard Hughes)
    Cate Blanchett (Katharine Hepburn)
    Kate Beckinsale (Ava Gardner)
    John C. Reilly (Noah Dietrich)
    Alec Baldwin (Juan Trippe)
    Alan Alda (id. Ralph Owen Brewster)
    Ian Holm (Fitz professzor)
    Gwen Stefani (Jean Harlow)
    Jude Law (Errol Flynn)
    Willem Dafoe (Roland Sweet)


    Relase:

    "Aviator.2004.BDRip.Xvid.hun-bakec01"

    *****************************************************************
    Codec ID : XVID
    Codec ID/Hint : XviD
    Duration : 1h 13mn
    Bit rate : 2 407 Kbps
    Width : 720 pixels
    Height : 304 pixels
    Display aspect ratio : 2.35:1
    Frame rate : 23.976 fps
    Color space : YUV
    Chroma subsampling : 4:2:0
    Bit depth : 8 bits
    Scan type : Progressive
    Compression mode : Lossy
    Bits/(Pixel*Frame) : 0.459
    Stream size : 1.23 GiB (84%)
    Writing library : XviD 1.2.1 (UTC 2008-12-04)

    Audio
    ID : 1
    Format : AC-3
    Format/Info : Audio Coding 3
    Mode extension : CM (complete main)
    Codec ID : 2000
    Duration : 1h 13mn
    Bit rate mode : Constant
    Bit rate : 448 Kbps
    Channel(s) : 6 channels
    *****************************************************************








    A film rövid tartalma:
    Howard Hughes, a huszadik század legfigyelemreméltóbb egyéniségei közé tartozott. Sikeres feltalálóként, dörzsölt iparmágnásként és ünnepelt hollywoodi producerként az álmai megvalósításáért a mindenre kész amerikai ideálját testesítette meg, legnagyobb szenvedélye azonban mindenekelőtt a repüléshez fűzte. Martin Scorsese kamerája előtt Hughes életének eredményekben leggazdagabb évei elevenednek meg: az a húszas évek közepétől a negyvenes évekig terjedő időszak, melynek során Hughes merészsége és szenvedélye révén mind a repülést, mind a filmkészítést forradalmasította. Hughes életének ezen fejezetét azonban, nemcsak a határtalan kísérletező kedv, a szenvedélyes szerelmi ügyek és a kíméletlen üzleti csatározások jellemezték, ezek voltak azok az évek is, amikor Hughes-nak először kellett szembenéznie a siker és a hírnév árnyoldalával, és saját maximalizmusa következményeivel.

    Scorsese filmje nemcsak a sorozatos győzelmekről és diadalokról, hanem Hughes magánéletéről is képet fest. Mesél Hollywood két legendás színésznőjéhez, Katharine Hepburn-höz (Cate Blanchett) és Ava Gardnerhez (Kate Beckinsale) fűződő kapcsolatáról, és beszámol a Pan American befolyásos vezetőjével, Juan Triplle-lel (Alec Baldwin) folytatott heves küzdelméről. Feltűnik a filmben Hughes jobb keze, a mágnás mellett egész életében kitartó Noah Dietrich (John C. Reilly), és a Hughes-val állandó harcban álló Owen Brewster szenátor (Alan Alda), továbbá tanúi lehetünk annak a tragikus kimenetelű repülőgép-balesetnek is, mely nagyban hozzájárult ahhoz, hogy az egyre súlyosabb fóbiákkal küzdő Hughes remetei magányban töltse élete hátralévő részét.

    Díjak és jelölések:
    BAFTA-díj (2005) - Legjobb film
    BAFTA-díj (2005) - Legjobb női mellékszereplő: Cate Blanchett
    BAFTA-díj (2005) - Legjobb látványtervezés: Dante Ferretti
    BAFTA-díj (2005) - Legjobb smink és maszk: Sian Grigg, Morag Ross, Kathryn Blondell
    Golden Globe díj (2005) - Legjobb színész - drámai kategória: Leonardo DiCaprio
    Oscar-díj (2005) - Legjobb operatőr: Robert Richardson
    Oscar-díj (2005) - Legjobb női mellékszereplő: Cate Blanchett
    Oscar-díj (2005) - Legjobb jelmeztervezés: Sandy Powell
    Oscar-díj (2005) - Legjobb látványtervezés: Francesca LoSchiavo, Dante Ferretti
    Oscar-díj (2005) - Legjobb vágás: Thelma Schoonmaker
    BAFTA-díj (2005) - Legjobb operatőr jelölés: Robert Richardson
    BAFTA-díj (2005) - Legjobb eredeti forgatókönyv jelölés: John Logan
    BAFTA-díj (2005) - Legjobb jelmeztervezés jelölés: Sandy Powell
    BAFTA-díj (2005) - Legjobb vizuális effektusok jelölés: Bruce Steinheimer, Matthew Gratzner, Peter G. Travers, Robert Legato
    BAFTA-díj (2005) - Legjobb hang jelölés: Eugene Gearty, Petur Hliddal, Tom Fleischman, Philip Stockton
    BAFTA-díj (2005) - Legjobb vágás jelölés: Thelma Schoonmaker
    BAFTA-díj (2005) - Legjobb férfi alakítás jelölés: Leonardo DiCaprio
    Golden Globe díj (2005) - Legjobb rendező jelölés: Martin Scorsese
    Golden Globe díj (2005) - Legjobb női mellékszereplő jelölés: Cate Blanchett
    Golden Globe díj (2005) - Legjobb forgatókönyv jelölés: John Logan
    Oscar-díj (2005) - Legjobb film jelölés: Michael Mann, Graham King
    Oscar-díj (2005) - Legjobb rendező jelölés: Martin Scorsese
    Oscar-díj (2005) - Legjobb férfi mellékszereplő jelölés: Alan Alda
    Oscar-díj (2005) - Legjobb eredeti forgatókönyv jelölés: John Logan
    Oscar-díj (2005) - Legjobb férfi alakítás jelölés: Leonardo DiCaprio
    Oscar-díj (2005) - Legjobb hangkeverés jelölés: Petur Hliddal, Tom Fleischman

    ---------------------------------------------------------------------








    NÉZD MEG A TÖBBI FELTÖLTÉSEMET IS!


    Admin
    Admin
    Admin

    Hozzászólások száma : 493
    Join date : 2012. Feb. 06.
    Age : 68
    Tartózkodási hely : Bp.

    Viharsziget (Shutter Island) 2009. | Szinkronizált amerikai thriller| DVDRip| data.hu

    Témanyitás  Admin on Szer. Ápr. 18, 2012 7:15 am







    Viharsziget (Shutter Island) 2009.

    színes, magyarul beszélő, amerikai thriller, 138 perc, 2009



    Rendezte:
    Martin Scorsese

    szereplő(k):
    Leonardo DiCaprio (Teddy Daniels)
    Mark Ruffalo (Chuck Aule)
    Ben Kingsley (Dr. John Cawley)
    Emily Mortimer (Rachel Solando)
    Michelle Williams (Dolores Chanal)
    Max von Sydow (Dr. Jeremiah Naehring)
    Jackie Earle Haley (George Noyce)

    Relase:
    "Viharsziget.2010.HUN.BDRip.XviD-NiNCS"
    *****************************************************************
    Codec ID : XVID
    Codec ID/Hint : XviD
    Duration : 1h 10mn
    Bit rate : 931 Kbps
    Width : 640 pixels
    Height : 272 pixels
    Display aspect ratio : 2.35:1
    Frame rate : 23.976 fps
    Color space : YUV
    Chroma subsampling : 4:2:0
    Bit depth : 8 bits
    Scan type : Progressive
    Compression mode : Lossy
    Bits/(Pixel*Frame) : 0.223
    Stream size : 467 MiB (67%)
    Writing library : XviD 1.0.3 (UTC 2004-12-20)

    Audio
    ID : 1
    Format : AC-3
    Format/Info : Audio Coding 3
    Mode extension : CM (complete main)
    Codec ID : 2000
    Duration : 1h 9mn
    Bit rate mode : Constant
    Bit rate : 448 Kbps
    Channel(s) : 6 channels
    *****************************************************************








    A film rövid tartalma:
    A világtól elzárva, a Massachusetts állam partjainál fekvő kis szigeten lévő elmegyógyintézetben tartják fogva az Egyesült Államok legveszedelmesebb elmebeteg bűnözőit. Amikor az ötvenes években a szigorúan őrzött intézményből megmagyarázhatatlan módon megszökik egy gyilkosságért elítélt nő, az igazgató, Dr. Cawley kénytelen külső segítséget kérni. Két rendőrbíró, Teddy Daniels és Chuck Aule utazik a szigetre, hogy kiderítse, mi történt, és megtalálja a szökevényt. Danielsnek nemcsak a munkáját hátráltató pszichiáterrel, hanem a saját démonaival is meg kell küzdenie.








    kocipor66
    Fanatikus
    Fanatikus

    Hozzászólások száma : 45
    Join date : 2012. Mar. 12.

    Re: Martin Scorsese rendezésével Filmek.

    Témanyitás  kocipor66 on Csüt. Ápr. 19, 2012 7:41 pm

    köszönöm:)

    Admin
    Admin
    Admin

    Hozzászólások száma : 493
    Join date : 2012. Feb. 06.
    Age : 68
    Tartózkodási hely : Bp.

    Kundun 1997.| Szinkronos amerikai filmdráma| DVDRip| data.hu

    Témanyitás  Admin on Pént. Ápr. 20, 2012 6:50 am








    Kundun 1997. - Datán.


    színes, magyarul beszélő, amerikai filmdráma, 130 perc, 1997

    Rendezte:
    Martin Scorsese

    szereplő(k):
    Tenzin Thuthob Tsarong (A felnőtt Dalai Láma)
    Tencho Gyalpo (A Dalai Láma anyja)
    Tsewang Migyur Khangsar (A Dalai Láma apja)
    Sonam Phuntsok (Reting Rimpoche)
    Lobsang Samten (Konyhamester)
    Gyatso Lukhang (Lord Chamberlain)
    Jigme Tsarong (Taktra Rimpoche)
    Tenzin Trinley (Ling Rimpoche)
    Geshi Yeshi Gyatso



    Kód:
    http://www.imdb.com/title/tt0119485/

    Relase:

    "Kundun.1997.HUN.DVDRip.Xvid-Thick"

    *****************************************************************
    Codec ID : XVID
    Codec ID/Hint : XviD
    Duration : 1h 7mn
    Bit rate : 997 Kbps
    Width : 624 pixels
    Height : 272 pixels
    Display aspect ratio : 2.25:1
    Frame rate : 25.000 fps
    Color space : YUV
    Chroma subsampling : 4:2:0
    Bit depth : 8 bits
    Scan type : Progressive
    Compression mode : Lossy
    Bits/(Pixel*Frame) : 0.235
    Stream size : 480 MiB (69%)
    Writing library : XviD 1.2.1 (UTC 2008-12-04)

    Audio
    ID : 1
    Format : AC-3
    Format/Info : Audio Coding 3
    Mode extension : CM (complete main)
    Codec ID : 2000
    Duration : 1h 7mn
    Bit rate mode : Constant
    Bit rate : 448 Kbps
    Channel(s) : 6 channels
    *****************************************************************









    A film rövid tartalma:
    Scorsese filmje Tibet vallási vezetője, a Dalai Láma előtti tiszteletadás és a nyugati civilizáció elragadtatásának gyümölcse a keleti kultúra iránt, továbbá kitűnő példa a buddhizmus bemutatására egy katolikus gyökerekkel rendelkező rendező szemszögéből. A film bemutatja a 14. Dalai Láma életét 1937 és 1959 között. A történet elején egy kétéves gyermeket, Tenzin Gyatsot, elismerik Buddha reinkarnációjának. Figyelemmel kísérhetjük a gyermek felnövését, oktatását, fiatal éveit, majd fokozatos felnőtté válását. A film második felében hősünknek el kell hagynia Tibetet. A kínai megszállás drámai időszaka és az ezt követő felkelés alatt a Lámát igazi lelki vezetőként ábrázolják, aki az erőszak hatására is képes megőrizni vallási tisztaságát és lelki nyugalmát.

    Kundun - ez a legnagyobb tibeti méltóság, a Dalai Láma (vagyis "a Bölcsesség Óceánja") tibeti neve. A ma is élő Tenzin Gyatso önéletrajzi írásai alapján készült film az eseményeket a főhős gyerekkorától, a magas tisztségre való kiválasztásától követi végig egészen addig a napig, amíg a maoista Kínából kénytelen volt máig tartó száműzetésbe vonulni. Martin Scorsese pompázatos kiállítású, lenyűgözően látványos filmeposza a közelmúlt (és a jelen) történelmének egyik legnagyobb személyiségét hozza közel hozzánk.

    Díjak és jelölések:
    Oscar-díj (1998) - Legjobb operatőr jelölés: Roger Deakins
    Oscar-díj (1998) - Legjobb jelmeztervezés jelölés: Dante Ferretti
    Oscar-díj (1998) - Legjobb látványtervezés jelölés: Dante Ferretti
    Oscar-díj (1998) - Legjobb filmzene jelölés: Philip Glass
    ---------------------------------------------------------------------










    NÉZD MEG A TÖBBI FELTÖLTÉSEMET IS!


    Admin
    Admin
    Admin

    Hozzászólások száma : 493
    Join date : 2012. Feb. 06.
    Age : 68
    Tartózkodási hely : Bp.

    Nagymenők 1990.| Szinkronos amerikai gengszterfilm| DVDRip| data.hu

    Témanyitás  Admin on Pént. Ápr. 20, 2012 7:01 am









    Nagymenők (Goodfellas) 1990. - Datán.


    színes, magyarul beszélő, amerikai gengszterfilm, 140 perc, 1990

    Rendezte:
    Martin Scorsese

    szereplő(k):
    Robert De Niro (James Conway)
    Ray Liotta (Henry Hill)
    Joe Pesci (Tommy DeVito)
    Lorraine Bracco (Karen Hill)
    Paul Sorvino (Paul Cicero)
    Samuel L. Jackson (Stacks Edwards)



    Kód:
    http://www.imdb.com/title/tt0099685/

    Relase:

    "Nagymenok.1990.BRRip.XviD.Hungarian-benson"

    *****************************************************************
    Codec ID : XVID
    Codec ID/Hint : XviD
    Duration : 2h 25mn
    Bit rate : 1 601 Kbps
    Width : 720 pixels
    Height : 400 pixels
    Display aspect ratio : 16:9
    Frame rate : 23.976 fps
    Color space : YUV
    Chroma subsampling : 4:2:0
    Bit depth : 8 bits
    Scan type : Progressive
    Compression mode : Lossy
    Bits/(Pixel*Frame) : 0.232
    Stream size : 1.63 GiB (87%)
    Writing library : XviD 1.2.1 (UTC 2008-12-04)

    Audio
    ID : 1
    Format : MPEG Audio
    Format version : Version 1
    Format profile : Layer 3
    Mode : Joint stereo
    Mode extension : MS Stereo
    Codec ID : 55
    Codec ID/Hint : MP3
    Duration : 2h 25mn
    Bit rate mode : Constant
    Bit rate : 224 Kbps
    Channel(s) : 2 channels
    *****************************************************************







    A film rövid tartalma:
    A történet az 1950-es években kezdődik, amikor Henry még csak egy 13 éves kamasz, aki vágyakozva figyeli a szemközt lakó, sokak által a legnagyobb tiszteletben tartott maffiózó, Jimmy fényűző életét. A félig ír, félig szicíliai származású fiút, aki mindig is közéjük vágyott, könnyen elcsábítja a gengszterek világa, és egy napon a helyi keresztapák családjának szolgálatába áll. Ugyanekkor csatlakozik a csapathoz a Henry-vel nagyjából azonos korú, így még könnyen befolyásolható Tommy DeVito, akivel a bajtársiasság jegyében és a nagymenők árnyékában gyorsan beletanulnak a szakmába. Néhány hónap sem telik el és Henry-t, akit maga Jimmy vezet be a könnyen szerzett pénz és a brutalitás világába, egyre többen előre köszöntik az utcán és név szerint ismeri a legjobb bár ajtónállója. Az újdonsült gengszterek gyorsan profikká válnak és hozzászoknak a vérrel áztatott, ám annál fényesebben csillogó gazdagsághoz. Egy napon azonban Henry-t válaszút elé állítja az alvilágért folytatott halálos küzdelem; az erőszak és a gyanú végleg elválasztja őt a családjától.

    Díjak és jelölések:
    BAFTA-díj (1991) - Legjobb film: Martin Scorsese, Irwin Winkler
    BAFTA-díj (1991) - Legjobb rendező: Martin Scorsese
    BAFTA-díj (1991) - Legjobb adaptált forgatókönyv: Martin Scorsese, Nicholas Pileggi
    BAFTA-díj (1991) - Legjobb jelmeztervezés: Richard Bruno
    BAFTA-díj (1991) - Legjobb vágás: Thelma Schoonmaker
    Oscar-díj (1991) - Legjobb férfi mellékszereplő: Joe Pesci
    Velencei Filmfesztivál (1990) - Legjobb rendező: Martin Scorsese
    BAFTA-díj (1991) - Legjobb operatőr jelölés: Michael Ballhaus
    BAFTA-díj (1991) - Legjobb férfi alakítás jelölés: Robert De Niro
    Golden Globe díj (1991) - Legjobb rendező jelölés: Martin Scorsese
    Golden Globe díj (1991) - Legjobb férfi mellékszereplő jelölés: Joe Pesci
    Golden Globe díj (1991) - Legjobb női mellékszereplő jelölés: Lorraine Bracco
    Golden Globe díj (1991) - Legjobb film - drámai kategória jelölés
    Golden Globe díj (1991) - Legjobb forgatókönyv jelölés: Nicholas Pileggi, Martin Scorsese
    Oscar-díj (1991) - Legjobb film jelölés: Irwin Winkler
    Oscar-díj (1991) - Legjobb rendező jelölés: Martin Scorsese
    Oscar-díj (1991) - Legjobb női mellékszereplő jelölés: Lorraine Bracco
    Oscar-díj (1991) - Legjobb adaptált forgatókönyv jelölés: Nicholas Pileggi, Martin Scorsese
    Oscar-díj (1991) - Legjobb vágás jelölés: Thelma Schoonmaker
    ---------------------------------------------------------------------










    NÉZD MEG A TÖBBI FELTÖLTÉSEMET IS!


    doresz2
    Data - Fájlmegosztó
    Data - Fájlmegosztó

    Hozzászólások száma : 112
    Join date : 2012. Mar. 28.

    Re: Martin Scorsese rendezésével Filmek.

    Témanyitás  doresz2 on Csüt. Ápr. 26, 2012 4:18 pm

    Köszönöm!

    ipx
    Fanatikus
    Fanatikus

    Hozzászólások száma : 30
    Join date : 2012. Apr. 01.

    Re: Martin Scorsese rendezésével Filmek.

    Témanyitás  ipx on Csüt. Ápr. 26, 2012 8:18 pm

    k

    Admin
    Admin
    Admin

    Hozzászólások száma : 493
    Join date : 2012. Feb. 06.
    Age : 68
    Tartózkodási hely : Bp.

    A leleményes Hugo (Hugo) 2011.| Szinkronos amerikai családi kalandfilm| BDRip| data.hu

    Témanyitás  Admin on Szer. Máj. 02, 2012 3:39 pm








    A leleményes Hugo (Hugo) 2011. - Datán.


    színes, Szinkronos , amerikai családi kalandfilm, 126 perc, 2011

    Rendezte:
    Martin Scorsese

    szereplő(k):
    Asa Butterfield (Hugo Cabret)
    Chloe Grace Moretz (Isabelle)
    Jude Law (Hugo apja)
    Christopher Lee (Monsieur Labisse)
    Helen McCrory (Mama Jeanne)
    Emily Mortimer (Lisette)
    Sacha Baron Cohen (állomás-felügyelő)
    Richard Griffiths (Monsieur Frick)
    Sir Ben Kingsley (Georges Mélies)
    Ray Winstone (Claude)
    Michael Stuhlbarg (Rene Tabard)
    Frances de la Tour (Madame Emilie)



    Kód:
    http://www.imdb.com/title/tt0970179/

    Relase:

    "Hugo.2011.BDRiP.XviD.HuN-MWT"

    *****************************************************************
    Codec ID : XVID
    Codec ID/Hint : XviD
    Duration : 2h 6mn
    Bit rate : 1 525 Kbps
    Width : 720 pixels
    Height : 400 pixels
    Display aspect ratio : 16:9
    Frame rate : 23.976 fps
    Color space : YUV
    Chroma subsampling : 4:2:0
    Bit depth : 8 bits
    Scan type : Progressive
    Compression mode : Lossy
    Bits/(Pixel*Frame) : 0.221
    Stream size : 1.35 GiB (77%)
    Writing library : XviD 64

    Audio
    ID : 1
    Format : AC-3
    Format/Info : Audio Coding 3
    Mode extension : CM (complete main)
    Codec ID : 2000
    Duration : 2h 6mn
    Bit rate mode : Constant
    Bit rate : 448 Kbps
    Channel(s) : 6 channels
    *****************************************************************






    A film rövid tartalma:
    A Hugo egy árva kisfiú története, aki egy párizsi pályaudvar falai mögött éli titkos életét. Egy különc lány segítségével keresi a választ a rejtélyre, mely összefügg apja elvesztésével, az alatta lakó mogorva játékboltossal és egy szív alakú lakattal, amelynek, úgy tűnik, nincs meg a kulcsa.

    Díjak és jelölések:
    BAFTA-díj (2012) - Legjobb látványtervezés
    BAFTA-díj (2012) - Legjobb hang
    Golden Globe díj (2012) - Legjobb rendező: Martin Scorsese
    Oscar-díj (2012) - Legjobb operatőr: Robert Richardson
    Oscar-díj (2012) - Legjobb látványtervezés
    Oscar-díj (2012) - Legjobb vizuális effektusok
    Oscar-díj (2012) - Legjobb hangvágás
    Oscar-díj (2012) - Legjobb hangkeverés
    BAFTA-díj (2012) - Legjobb rendező jelölés: Martin Scorsese
    BAFTA-díj (2012) - Legjobb operatőr jelölés: Robert Richardson
    BAFTA-díj (2012) - Legjobb jelmeztervezés jelölés
    BAFTA-díj (2012) - Legjobb vizuális effektusok jelölés
    BAFTA-díj (2012) - Legjobb vágás jelölés: Thelma Schoonmaker
    BAFTA-díj (2012) - Legjobb smink és maszk jelölés
    BAFTA-díj (2012) - Legjobb filmzene jelölés: Howard Shore
    Golden Globe díj (2012) - Legjobb filmzene jelölés: Howard Shore
    Golden Globe díj (2012) - Legjobb film - drámai kategória jelölés
    Oscar-díj (2012) - Legjobb film jelölés: Martin Scorsese, Graham King
    Oscar-díj (2012) - Legjobb rendező jelölés: Martin Scorsese
    Oscar-díj (2012) - Legjobb adaptált forgatókönyv jelölés: John Logan
    Oscar-díj (2012) - Legjobb jelmeztervezés jelölés
    Oscar-díj (2012) - Legjobb vágás jelölés: Thelma Schoonmaker
    Oscar-díj (2012) - Legjobb filmzene jelölés: Howard Shore
    ---------------------------------------------------------------------










    NÉZD MEG A TÖBBI FELTÖLTÉSEMET IS!


    dzsi123
    Fanatikus
    Fanatikus

    Hozzászólások száma : 21
    Join date : 2012. Mar. 17.

    köszi

    Témanyitás  dzsi123 on Szomb. Jún. 23, 2012 6:09 am

    Very Happy Very Happy Very Happy

    richmond81
    Leskelődő
    Leskelődő

    Hozzászólások száma : 3
    Join date : 2012. Jun. 24.

    Re: Martin Scorsese rendezésével.

    Témanyitás  richmond81 on Vas. Jún. 24, 2012 8:54 am

    Koszi szepen!

    mlendvai
    Törzsvendég
    Törzsvendég

    Hozzászólások száma : 69
    Join date : 2012. Jul. 05.

    Re: Martin Scorsese rendezésével Filmek.

    Témanyitás  mlendvai on Szomb. Júl. 07, 2012 10:27 pm

    köszi

    brigi-63
    Töltögető
    Töltögető

    Hozzászólások száma : 10
    Join date : 2012. Feb. 24.

    Re: Martin Scorsese rendezésével Filmek.

    Témanyitás  brigi-63 on Csüt. Júl. 12, 2012 3:47 pm

    köszi

    mistletoe
    Leskelődő
    Leskelődő

    Hozzászólások száma : 9
    Join date : 2012. May. 16.

    Re: Martin Scorsese rendezésével Filmek.

    Témanyitás  mistletoe on Hétf. Júl. 23, 2012 1:30 pm

    Köszönöm a mozikat!

    posztpank
    Leskelődő
    Leskelődő

    Hozzászólások száma : 1
    Join date : 2012. Apr. 20.

    Re: Martin Scorsese rendezésével Filmek.

    Témanyitás  posztpank on Szomb. Júl. 28, 2012 3:59 pm

    Köszönöm a feltöltést!

    balasko
    Töltögető
    Töltögető

    Hozzászólások száma : 13
    Join date : 2012. Jul. 20.

    Re: Martin Scorsese rendezésével Filmek.

    Témanyitás  balasko on Pént. Aug. 03, 2012 11:09 am

    Köszönöm

    almafa11
    Leskelődő
    Leskelődő

    Hozzászólások száma : 2
    Join date : 2012. Jul. 23.

    Re: Martin Scorsese rendezésével Filmek.

    Témanyitás  almafa11 on Szomb. Szept. 01, 2012 12:12 pm

    http://data.hu/get/5515401/09.01.varand_LV.rar?pid=3561198131

    Sponsored content

    Re: Martin Scorsese rendezésével Filmek.

    Témanyitás  Sponsored content Today at 9:23 am


      Pontos idő: Hétf. Dec. 05, 2016 9:23 am