Szólj hozzá a témához és letöltheted a tartalmat!

Prémium előfizetésel több szálon, várakozás nélküli letöltés, nagy sebességgel!


    Ridley Scott rendezésével Filmek.

    Share

    Admin
    Admin
    Admin

    Hozzászólások száma : 493
    Join date : 2012. Feb. 06.
    Age : 68
    Tartózkodási hely : Bp.

    Ridley Scott rendezésével Filmek.

    Témanyitás  Admin on Hétf. Ápr. 16, 2012 7:05 am

    Ridley Scott

    Művészneve
    Rid, R-Scott, The Scott brothers

    Született
    South Shields 1937. november 30. (74 éves)

    Származás
    Amerikai Egyesült Államok

    Házastárs
    Felicity Heywood (1964-1975)
    Sandy Watson (1979-1989)

    Foglalkozása:
    filmrendező és producer




    Sir Ridley Scott (South Shields, 1937. november 30. - ) Oscar-díjra jelölt, Golden Globe, Emmy-díj és BAFTA-díj nyertes angol filmrendező és producer.
    Legismertebb filmjei közé tartoznak az A nyolcadik utas: a Halál, a Szárnyas fejvadász, a Thelma és Louise, a Gladiátor, a Hannibal, A Sólyom végveszélyben, A Trükkös fiúk, a Mennyei királyság, az Amerikai gengszter és a Hazugságok hálója. Öccse, Tony szintén filmrendező.


    Élete
    Kezdetek
    Scott családjából sokan katonáskodtak, többek közt a bátyja, Frank és az édesapja is, aki így kevés időt töltött a gyermekeivel. A családnak sokszor költöznie kellett Nagy-Britannián belül, de egy ideig Németországban is éltek. A második világháború után a család visszaköltözött Észak-nyugat Angliába (ez a vidék ihlette később a Szárnyas fejvadász több jelenetét is)[1]. Szeretett filmeket nézni, kedvencei közé tartozott az Arábiai Lawrence, az Aranypolgár és A hét szamuráj. A stocktoni Grangefield Grammar School-ban tanult 1954-től 1958-ig, majd a West Hartlepool College of Art-ban diplomázott, a mesterfokozatot a Royal College of Art-ban szerezte meg grafikai tervezőként.

    Karrier:

    Első rendezése a rendőrökről szóló Z Cars című szappanopera volt. 1968-ban testvérével megalapította saját filmgyártó és produkciós cégét, a Ridley Scott Associates-t. Első mozifilmje az 1977-es Párbajhősök volt, amellyel elnyerte a cannes-i filmfesztivál elsőfilmes rendezőjének járó díját. A sikert az 1979-es A nyolcadik utas: a Halál hozta meg számára, majd ezt követte 1982-ben a Szárnyas fejvadász. 1986-ban egy fantasyfilmet, a Legendát rendezte Tom Cruise és Mia Sara főszereplésével. Három év múlva Michael Douglas-szel leforgatta a Fekete esőt. Az 1991-es év Oscar és BAFTA-díj jelölést hozott számára a Thelma és Louise film révén, melyben olyan neves színészekkel dolgozott együtt, mint Susan Sarandon, Geena Davis, Harvey Keitel és Brad Pitt. A következő évben egy monumentális történelmi filmet készített Amerika felfedezéséről, az 1492 - A Paradicsom meghódítása címmel, Gérard Depardieu főszereplésével. Az 1996-os Szélvihar (Tomboló szél) és a Demi Moore főszereplésével készült G.I. Jane, nem nyerte el a közönség tetszését. Pár évnyi hallgatás után 2001-ben került a mozikba a Gladiátor, amely kasszasiker lett és Oscar-díjjal jutalmazták. Ezután elkészítette a A bárányok hallgatnak folytatását, a Hannibal-t Anthony Hopkins főszereplésével, amely szintén világsiker lett. A következő nagy dobása a Mennyei királyság volt 2005-ben.

    Magánélete

    Első feleségét Felicity Heywood-ot 1964-ben vette el, a házasság 1975-ben ért véget. Második feleségét, Sandy Watsont négy évvel később vette el, ez a házasság 1989-ig tartott. Jelenleg Giannina Facio színésznővel él együtt. Fia, Jake Scott szintén rendező. Testvéréhez, Tony Scotthoz hasonlóan ő is nagy dohányos, kedvence a Montecristo kubai szivar.

    Filmek:
    2012 - A fehér pokol (The Grey)
    producer

    2012 - Prometheus
    producer, rendező

    2011 - Life in a Day
    ügyvezető producer

    2010 - Mallory szerint a világ (Welcome to the Rileys)
    producer

    2010 - A furcsa srác (Cyrus)
    ügyvezető producer

    2010 - A szupercsapat (The A-Team)
    producer

    2010 - Robin Hood
    producer, rendező

    2009 - Merülések (Cracks)
    ügyvezető producer

    2009 - Churchill háborúja (Into the Storm)
    ügyvezető producer

    2009 - Az áruló szív (Tell-Tale)
    producer

    2008 - Az Androméda-törzs (The Andromeda Strain)
    ügyvezető producer

    2008 - Hazugságok hálója (Body of Lies)
    producer, rendező

    2007 - A Cég - A CIA regénye (The Company)
    ügyvezető producer

    2007 - Jesse James meggyilkolása, a tettes a gyáva Robert Ford (The Assassination of Jesse James by the Coward Robert Ford)
    producer

    2007 - Amerikai gengszter (American Gangster)
    producer, rendező

    2006 - Bor, mámor, Provance (A Good Year)
    producer, rendező

    2006 - Trisztán és Izolda (Tristan + Isolde)
    ügyvezető producer

    2005 - Isten bárányai (All the Invisible Children)
    rendező

    2005 - Egy cipőben (In Her Shoes)
    producer

    2005 - Mennyei királyság (Kingdom of Heaven)
    producer, rendező

    2003 - Trükkös fiúk (Matchstick Men)
    producer, rendező

    2002 - Gomolygó viharfelhők (The Gathering Storm)
    ügyvezető producer

    2001 - A Sólyom végveszélyben (Black Hawk Down)
    producer, rendező

    2001 - Hannibál (Hannibal)
    producer, rendező

    2000 - Az utolsó vita (The Last Debate)
    ügyvezető producer

    2000 - Pénzt és életet (Where the Money Is)
    producer

    2000 - Gladiátor (Gladiator)
    rendező

    1999 - Az Aranypolgár születése (RKO 281)
    producer

    1998 - Agyaggalamb (Clay Pigeons)
    producer

    1997 - G.I. Jane
    producer, rendező

    1996 - Tomboló szél (White Squall)
    ügyvezető producer, rendező

    1994 - Magánórák (The Browning Version)
    producer

    1992 - 1492 - A paradicsom meghódítása (1492: Conquest of Paradise)
    producer, rendező

    1990 - Thelma és Louise (Thelma & Louise)
    producer, rendező

    1989 - Fekete eső (Black Rain)
    rendező

    1987 - Testőrbőrben (Someone to Watch Over Me)
    rendező

    1985 - Legenda (Legend)
    rendező

    1982 - Szárnyas fejvadász (Blade Runner)
    rendező

    1979 - Alien - A nyolcadik utas a halál (Alien)
    rendező

    1977 - Párbajhősök (The Duellists)
    rendező




    Díjak, jelölések

    Amerikai gengszter
    BAFTA-díj (2008) - Legjobb film jelölés
    Golden Globe-díj (2008) - Legjobb rendező jelölés
    A Sólyom végveszélyben
    Oscar-díj (2002) - Legjobb rendező jelölés
    Gladiátor
    Oscar-díj (2001) - Legjobb rendező jelölés
    Thelma és Louise
    BAFTA-díj (1992) - Legjobb film jelölés
    Oscar-díj (1992) - Legjobb rendező jelölés
    BAFTA-díj (1992) - Legjobb rendező jelölés
    César-díj (1992) - Legjobb idegennyelvű film jelölés

    A filmjeit csak rendezőként 1990- töltöm fel!Extra kérésre rakok mást is Smile
    Jó szórakozást hozzá!



    A hozzászólást Admin összesen 1 alkalommal szerkesztette, legutóbb Vas. Júl. 22, 2012 9:00 pm-kor.

    Admin
    Admin
    Admin

    Hozzászólások száma : 493
    Join date : 2012. Feb. 06.
    Age : 68
    Tartózkodási hely : Bp.

    A Sólyom végveszélyben 2001.| Szinkronos amerikai háborús| DVDRip| data.hu

    Témanyitás  Admin on Hétf. Ápr. 23, 2012 6:34 am









    A Sólyom végveszélyben (Black Hawk Down) 2001. - Datán.


    színes, amerikai háborús filmdráma, 144 perc, 2001

    Rendezte:
    Ridley Scott

    szereplő(k):
    Jason Isaacs (Mike Steele kapitány)
    Josh Hartnett (Matt Eversmann őrmester)
    Eric Bana (Hooten őrmester)
    Ewan McGregor (John Grimes)
    Tom Sizemore (Danny McKnight alezredes)
    William Fichtner (Paul Howe őrmester)
    Ewen Bremner (Shawn Nelson)
    Sam Shepard (William F. Garrison)
    Gabriel Casseus (Mike Kurth)
    Zeljko Ivanek (Gary Harrell)
    Orlando Bloom (Todd Blackburn közlegény)
    Ron Eldard (Mike Durant főtörzszászlós)
    Jeremy Piven (Cliff Wolcott főtörzszászlós)
    Nikolaj Coster-Waldau (Gary Gordon őrmester)



    Kód:
    http://www.imdb.com/title/tt0265086/

    Relase:

    "A.Solyom.vegveszelyben.DVDRip.XviD.HunDub-PREtorians"

    *****************************************************************
    Codec ID : XVID
    Codec ID/Hint : XviD
    Duration : 2h 18mn
    Bit rate : 1 272 Kbps
    Width : 640 pixels
    Height : 256 pixels
    Display aspect ratio : 2.500
    Frame rate : 25.000 fps
    Color space : YUV
    Chroma subsampling : 4:2:0
    Bit depth : 8 bits
    Scan type : Progressive
    Compression mode : Lossy
    Bits/(Pixel*Frame) : 0.311
    Stream size : 1.23 GiB (91%)
    Writing library : FFmpeg0.4.9-pre1b4752

    Audio
    ID : 1
    Format : MPEG Audio
    Format version : Version 1
    Format profile : Layer 3
    Mode : Joint stereo
    Mode extension : MS Stereo
    Codec ID : 55
    Codec ID/Hint : MP3
    Duration : 2h 18mn
    Bit rate mode : Constant
    Bit rate : 128 Kbps
    Channel(s) : 2 channels
    *****************************************************************







    A film rövid tartalma:
    Egy évtizede megtörtént kommandós esetet dolgoz fel a látványos film: 1993. október 3-án közel 100 ejtőernyős amerikai katonát dobtak le Mogadishuban, Szomália fővárosában Mike Steele kapitány (Jason Isaacs) vezetésével. A polgárháborút szító hadúr és szárnysegédei voltak a célpontok. A 45 percesre tervezett villámakció 16 órás vérfürdőbe torkollott. 18 katonát és két Black Hawk típusú hipermodern harci helikoptert veszítettek az amerikaiak. A sikertelen akció a szomáliai amerikai akciók beszüntetésére hangolta az otthoni közvéleményt. Mark Bowden nagysikerű naplójából készült a drámai pillanatokban bővelkedő mozi.

    Díjak és jelölések:
    Oscar-díj (2002) - Legjobb vágás: Pietro Scalia
    Oscar-díj (2002) - Legjobb hangkeverés: Chris Munro, Michael Minkler, Myron Nettinga
    BAFTA-díj (2002) - Legjobb operatőr jelölés: Slavomir Idziak
    BAFTA-díj (2002) - Legjobb hang jelölés: Myron Nettinga, Michael Minkler, Chris Munro
    BAFTA-díj (2002) - Legjobb vágás jelölés: Pietro Scalia
    Oscar-díj (2002) - Legjobb rendező jelölés: Ridley Scott
    Oscar-díj (2002) - Legjobb operatőr jelölés: Slavomir Idziak

    ---------------------------------------------------------------------










    NÉZD MEG A TÖBBI FELTÖLTÉSEMET IS!


    Admin
    Admin
    Admin

    Hozzászólások száma : 493
    Join date : 2012. Feb. 06.
    Age : 68
    Tartózkodási hely : Bp.

    Amerikai gengszter 2007. | Szinkronizált amerikai krimi | DVDRip | data.hu

    Témanyitás  Admin on Hétf. Ápr. 23, 2012 6:39 am









    Amerikai gengszter 2007. - Datán.


    színes, magyarul beszélő, amerikai krimi, 157 perc, 2007.


    Rendezte:
    Ridley Scott

    szereplő(k):
    Denzel Washington (Frank Lucas)
    Russell Crowe (Richie Roberts)
    Cuba Gooding Jr. (Nicky Barnes)
    Josh Brolin (Trupo)
    RZA (Jones)
    Ruby Dee (Frank Lucas anyja)
    John Ortiz (Javy Rivera)
    Lymari Nadal (Eva)
    Yul Vazquez (Alphonse Abruzzo)



    Kód:
    http://www.imdb.com/title/tt0765429/

    Relase:

    "Amerikai.Gengszter.2007.DVDRip.Xvid.HunDub-BD"

    *****************************************************************
    Format : AVC
    Format/Info : Advanced Video Codec
    Format profile : Baseline@L1.3
    Format settings, CABAC : No
    Format settings, ReFrames : 1 frame
    Codec ID : H264
    Duration : 1h 16mn
    Bit rate : 880 Kbps
    Width : 688 pixels
    Height : 376 pixels
    Display aspect ratio : 16:9
    Frame rate : 25.000 fps
    Color space : YUV
    Chroma subsampling : 4:2:0
    Bit depth : 8 bits
    Scan type : Progressive
    Bits/(Pixel*Frame) : 0.136
    Stream size : 480 MiB (69%)

    Audio
    ID : 1
    Format : AC-3
    Format/Info : Audio Coding 3
    Mode extension : CM (complete main)
    Codec ID : 2000
    Duration : 1h 16mn
    Bit rate mode : Constant
    Bit rate : 384 Kbps
    Channel(s) : 6 channels
    *****************************************************************










    A film rövid tartalma:
    Frank Lucasra nem figyelt fel senki, míg a belváros egyik fekete főgengszterének hallgatag sofőrje volt. Ám amikor főnöke váratlanul meghal, Frank kihasználja a hatalmi struktúrában keletkezett rést, és felépíti saját birodalmát, megteremti az Amerikai Álom saját személyére szabott verzióját. Zsenialitásának és szigorú üzleti etikájának köszönhetően ő lesz a belvárosi drogkereskedelem ura, tisztább és olcsóbb anyaggal árasztja el az utcákat. Lucas kijátssza a vezető szindikátusokat, és nem csak a megvesztegetések jól kiépített hálózatán keresztül uralja a várost, de ő lesz a legális társasági élet egyik szupersztárja is.

    Richie Roberts a becsületes zsaru, akit a társai kinéznek maguk közül. Elég közel van az utcákhoz, hogy érezze a hatalmi viszonyok elmozdulását a kábítószeres alvilágban. Roberts meggyőződése, hogy valaki az ismert maffiacsaládok fölé került, és gyanítani kezdi, hogy egy fekete játékos bukkant fel a semmiből, és egyenesen a csúcsra tör.

    Lucas és Roberts is szigorú erkölcsi kódex szerint él, ez különbözteti meg őket társaiktól, ettől lesznek mindketten magányos harcosok a törvény két oldalán. A két férfi sorsa összefonódik, ahogy egyre közeleg a leszámolás perce, amelyből csak az egyikük kerülhet ki győztesen.

    Díjak és jelölések:
    BAFTA-díj (2008) - Legjobb film jelölés: Brian Grazer, Ridley Scott
    BAFTA-díj (2008) - Legjobb operatőr jelölés: Harris Savides
    BAFTA-díj (2008) - Legjobb eredeti forgatókönyv jelölés: Steven Zaillian
    BAFTA-díj (2008) - Legjobb vágás jelölés: Pietro Scalia
    BAFTA-díj (2008) - Legjobb filmzene jelölés: Marc Streitenfeld
    Golden Globe díj (2008) - Legjobb rendező jelölés: Ridley Scott
    Golden Globe díj (2008) - Legjobb színész - drámai kategória jelölés: Denzel Washington
    Golden Globe díj (2008) - Legjobb film - drámai kategória jelölés
    Oscar-díj (2008) - Legjobb női mellékszereplő jelölés: Ruby Dee
    Oscar-díj (2008) - Legjobb látványtervezés jelölés
    ---------------------------------------------------------------------








    NÉZD MEG A TÖBBI FELTÖLTÉSEMET IS!


    Admin
    Admin
    Admin

    Hozzászólások száma : 493
    Join date : 2012. Feb. 06.
    Age : 68
    Tartózkodási hely : Bp.

    Bor, mámor, Provence 2006.| Szinkronos amerikai filmdráma|DVDRip. |data.hu

    Témanyitás  Admin on Hétf. Ápr. 23, 2012 6:48 am










    Bor, mámor, Provence (A Good Year) 2006. - Datán.


    színes, magyarul beszélő, amerikai filmdráma, 118 perc, 2006

    Rendezte:
    Ridley Scott

    szereplő(k):
    Russell Crowe (Max Skinner)
    Marion Cotillard (Fanny)
    Albert Finney (Henry nagybácsi)
    Tom Hollander (Charlie Willis)
    Didier Bourdon (Francis Duflot)
    Freddie Highmore (Ifjú Max)
    Abbie Cornish (Christie Roberts)
    Isabelle Candelier (Ludivine)



    Kód:
    http://www.imdb.com/title/tt0401445/

    Relase:

    "Bor.Mamor.Provance.HUN.DVDRip.XviD-PREtorians"

    *****************************************************************
    Codec ID : XVID
    Codec ID/Hint : XviD
    Duration : 2h 17mn
    Bit rate : 1 032 Kbps
    Width : 672 pixels
    Height : 288 pixels
    Display aspect ratio : 2.35:1
    Frame rate : 25.000 fps
    Color space : YUV
    Chroma subsampling : 4:2:0
    Bit depth : 8 bits
    Scan type : Progressive
    Compression mode : Lossy
    Bits/(Pixel*Frame) : 0.213
    Stream size : 1 011 MiB (72%)
    Writing library : XviD 1.1.0 (UTC 2005-11-22)

    Audio
    ID : 1
    Format : AC-3
    Format/Info : Audio Coding 3
    Mode extension : CM (complete main)
    Codec ID : 2000
    Duration : 2h 17mn
    Bit rate mode : Constant
    Bit rate : 384 Kbps
    Channel(s) : 6 channels
    *****************************************************************







    A film rövid tartalma:
    A bankár Max új tranzakciójának sikerét beárnyékolja bácsikája halálhíre. Miközben Franciaországba utazik, ahol kastélyt és szőlőbirtokot örökölt, a munkaadója vizsgálatot indít ellene. Kiderül, hogy a pincészet sokat érhet. Max maga sem tudja, mihez kezdjen, vegye át az irányítást, vagy értékesítse. Az emlékei mellett sok idejét foglalja le Fanny, az étterem tulajdonosnője. Az álmodozásnak vége szakad, amikor felbukkan Christie, a nagybácsi törvénytelen lánya. Max szerint viszont szélhámos. De nem ez az egyetlen rejtély a nagybácsi és a birtok életében.

    ---------------------------------------------------------------------










    NÉZD MEG A TÖBBI FELTÖLTÉSEMET IS!


    Admin
    Admin
    Admin

    Hozzászólások száma : 493
    Join date : 2012. Feb. 06.
    Age : 68
    Tartózkodási hely : Bp.

    Hazugságok hálója (Body of Lies) 2008.| Szinkronos amerikai filmdráma| DVDRip| data.hu

    Témanyitás  Admin on Hétf. Ápr. 23, 2012 6:53 am










    Hazugságok hálója (Body of Lies) 2008 DVDRip.Xvid.Hun

    színes, amerikai filmdráma, 128 perc, 2008

    Rendezte:
    Ridley Scott


    szereplő(k):
    Leonardo DiCaprio (Roger Ferris)
    Russell Crowe (Ed Hoffman)
    Mark Strong (Hani)
    Carice van Houten (Gretchen Ferris)
    Oscar Isaac (Bassam)




    Kód:
    http://www.imdb.com/title/tt0758774/


    Relase:
    " Hazugsagok.haloja.Retail.2008.DVDRip.Xvid.Hun-GanG"
    *****************************************************************
    Codec ID : XVID
    Codec ID/Hint : XviD
    Duration : 1h 1mn
    Bit rate : 1 198 Kbps
    Width : 656 pixels
    Height : 272 pixels
    Display aspect ratio : 2.40:1
    Frame rate : 25.000 fps
    Color space : YUV
    Chroma subsampling : 4:2:0
    Bit depth : 8 bits
    Scan type : Progressive
    Compression mode : Lossy
    Bits/(Pixel*Frame) : 0.269
    Stream size : 529 MiB (75%)
    Writing library : XviD 1.2.0.dev47 (UTC 2006-11-01)

    Audio
    ID : 1
    Format : AC-3
    Format/Info : Audio Coding 3
    Mode extension : CM (complete main)
    Codec ID : 2000
    Duration : 1h 1mn
    Bit rate mode : Constant
    Bit rate : 384 Kbps
    Channel(s) : 6 channels
    *****************************************************************









    A film rövid tartalma:
    Roger (Leonardo DiCaprio) mindenhonnan kijut: akkor is megússza a bevetést, ha mindenki más odavész. O a CIA legjobb ügynöke, aki már rég elvesztette saját egyéniségét: sosem több saját, még le nem leplezett álnevénél és - személyiségénél. Ed Hoffman (Russell Crowe) szintén a Cég veteránja, de egészen másképp dolgozik. Szép kertvárosi házában ülve, a laptopja segítségével harcol. A terepen mozgó embere minden mozdulatát o irányítja, még azt is o mondja meg, honnan jön a következo lövés. Egy új terrorista vezér nyomában járva Roger bizonytalan szövetségre lép a jordán titkosszolgálattal, és megpróbál beépülni a titkos pénzátutalások és önkéntes mártírok világába. Irakon, Jordánián, Dubain és Washingtonon át üldözi az emberét, de minél közelebb kerül hozzá, annál több hazugságba ütközik a terepen és otthon. Az átverések közt tévelyegve már a szövetségesek sem érnek többet, mint legutóbbi megszegett ígéretük, és a bizalomnál nincs veszélyesebb, öngyilkos taktika.








    Admin
    Admin
    Admin

    Hozzászólások száma : 493
    Join date : 2012. Feb. 06.
    Age : 68
    Tartózkodási hely : Bp.

    Gladiátor (Gladiator) 2000.| Szinkronos amerikai filmdráma|DVDRip. |data.hu

    Témanyitás  Admin on Hétf. Ápr. 23, 2012 7:05 am










    Gladiátor (Gladiator) 2000. - Datán.


    színes, magyarul beszélő, amerikai-angol történelmi kalandfilm, 149 perc, 2000

    Rendezte:
    Ridley Scott

    szereplő(k):
    Russell Crowe (Maximus)
    Joaquin Phoenix (Commodus)
    Connie Nielsen (Lucilla)
    Richard Harris (Marcus Aurelius)
    Djimon Hounsou (Juba)
    Ralph Moeller (Vibius)
    Tomas Arana (Quintus)
    Oliver Reed (Proximo)
    Derek Jacobi (Gracchus)




    Kód:
    http://www.imdb.com/title/tt0172495/

    Relase:

    "Gladiator.2000.HUN.DVDRip.XviD-1st"

    *****************************************************************
    Codec ID : XVID
    Codec ID/Hint : XviD
    Duration : 1h 16mn
    Bit rate : 818 Kbps
    Width : 640 pixels
    Height : 256 pixels
    Display aspect ratio : 2.500
    Frame rate : 25.000 fps
    Color space : YUV
    Chroma subsampling : 4:2:0
    Bit depth : 8 bits
    Scan type : Progressive
    Compression mode : Lossy
    Bits/(Pixel*Frame) : 0.200
    Stream size : 448 MiB (64%)
    Writing library : XviD 1.2.0.dev47 (UTC 2006-11-01)

    Audio
    ID : 1
    Format : AC-3
    Format/Info : Audio Coding 3
    Format profile : Dolby Digital
    Mode extension : CM (complete main)
    Codec ID : 2000
    Duration : 1h 16mn
    Bit rate mode : Constant
    Bit rate : 448 Kbps
    Channel(s) : 2 channels
    *****************************************************************









    A film rövid tartalma:
    Maximus, a hatalmas római generális (Russell Crowe) a nép kedvence, és az idős uralkodó, Marcus Aurelius (Richard Harris) bizalmát is élvezi. Az összeesküvés áldozataként haldokló Marcus Aurelius őt teszi meg örökösévé hataloméhes fia, Commodus (Joaquin Phoenix) ellenében. Commodus átveszi mégis a hatalmat, és halálra ítéli Maximust: ő megmenekül, a Hispániában élő családjára mért csapást azonban nem tudja megakadályozni. Összetörten a rabszolgakereskedők kezére jut, akik eladják gladiátornak. Az életéért küzdő Maximust Rómába viszik, ahol felhasználja régi hírnevét, hogy lázadást szítson az eltunyult rómaiak között az elnyomó hatalom megdöntésére.

    Díjak és jelölések:
    BAFTA-díj (2001) - Legjobb film: Branko Lustig, David Franzoni, Douglas Wick
    BAFTA-díj (2001) - Legjobb operatőr: John Mathieson
    BAFTA-díj (2001) - Legjobb látványtervezés: Arthur Max
    BAFTA-díj (2001) - Legjobb vágás: Pietro Scalia
    Golden Globe díj (2001) - Legjobb film - drámai kategória
    Oscar-díj (2001) - Legjobb film: Branko Lustig, David Franzoni, Douglas Wick
    Oscar-díj (2001) - Legjobb jelmeztervezés: Janty Yates
    Oscar-díj (2001) - Legjobb vizuális effektusok: Rob Harvey, Tim Burke, Neil Corbould, John Nelson
    Oscar-díj (2001) - Legjobb férfi alakítás: Russell Crowe
    Oscar-díj (2001) - Legjobb hangkeverés: Bob Beemer, Ken Weston, Scott Millan
    BAFTA-díj (2001) - Legjobb rendező jelölés: Ridley Scott
    BAFTA-díj (2001) - Legjobb férfi mellékszereplő jelölés: Oliver Reed, Joaquin Phoenix
    BAFTA-díj (2001) - Legjobb eredeti forgatókönyv jelölés: William Nicholson, David Franzoni, John Logan
    BAFTA-díj (2001) - Legjobb jelmeztervezés jelölés: Janty Yates
    BAFTA-díj (2001) - Legjobb vizuális effektusok jelölés
    BAFTA-díj (2001) - Legjobb hang jelölés
    BAFTA-díj (2001) - Legjobb smink és maszk jelölés
    BAFTA-díj (2001) - Legjobb férfi alakítás jelölés: Russell Crowe
    Európai Filmakadémia (2000) - Legjobb nem európai film jelölés: Ridley Scott
    Golden Globe díj (2001) - Legjobb rendező jelölés: Ridley Scott
    Golden Globe díj (2001) - Legjobb férfi mellékszereplő jelölés: Joaquin Phoenix
    Golden Globe díj (2001) - Legjobb színész - drámai kategória jelölés: Russell Crowe
    Oscar-díj (2001) - Legjobb rendező jelölés: Ridley Scott
    Oscar-díj (2001) - Legjobb operatőr jelölés: John Mathieson
    Oscar-díj (2001) - Legjobb férfi mellékszereplő jelölés: Joaquin Phoenix
    Oscar-díj (2001) - Legjobb eredeti forgatókönyv jelölés: David H. Franzoni, John Logan, William Nicholson
    Oscar-díj (2001) - Legjobb látványtervezés jelölés: Crispian Sallis, Arthur Max
    Oscar-díj (2001) - Legjobb vágás jelölés: Pietro Scalia
    Oscar-díj (2001) - Legjobb filmzene jelölés: Hans Zimmer
    ---------------------------------------------------------------------










    NÉZD MEG A TÖBBI FELTÖLTÉSEMET IS!


    doresz2
    Data - Fájlmegosztó
    Data - Fájlmegosztó

    Hozzászólások száma : 112
    Join date : 2012. Mar. 28.

    Re: Ridley Scott rendezésével Filmek.

    Témanyitás  doresz2 on Csüt. Ápr. 26, 2012 3:50 pm

    Köszönöm!

    Admin
    Admin
    Admin

    Hozzászólások száma : 493
    Join date : 2012. Feb. 06.
    Age : 68
    Tartózkodási hely : Bp.

    Hannibal 2001.| Szinkronos amerikai thriller|720p.BRRip |data.hu

    Témanyitás  Admin on Vas. Ápr. 29, 2012 7:52 pm











    Hannibal 2001. - Datán.


    színes, magyarul beszélő, angol-amerikai thriller, 131 perc, 2001

    Rendezte:
    Ridley Scott

    szereplő(k):
    Sir Anthony Hopkins (Hannibal Lecter)
    Julianne Moore (Clarice Starling)
    Ray Liotta (Paul Krendler)
    Gary Oldman (Mason Verger)
    Giancarlo Giannini (Pazzi)
    Francesca Neri (Allegra Pazzi)
    Frankie Faison (Barney)
    Zeljko Ivanek (Dr. Cordell Doemling)
    Hazelle Goodman (Evelda Drumgo)




    Kód:
    http://www.imdb.com/title/tt0212985/

    Relase:

    "Hannibal.2001.720p.BRRip.AC3.Xvid.HuN-HighTemplar"

    *****************************************************************
    Codec ID : XVID
    Codec ID/Hint : XviD
    Duration : 2h 11mn
    Bit rate : 2 679 Kbps
    Width : 1 280 pixels
    Height : 688 pixels
    Display aspect ratio : 1.860
    Frame rate : 24.000 fps
    Color space : YUV
    Chroma subsampling : 4:2:0
    Bit depth : 8 bits
    Scan type : Progressive
    Compression mode : Lossy
    Bits/(Pixel*Frame) : 0.127
    Stream size : 2.46 GiB (86%)
    Writing library : XviD 1.2.0.dev47 (UTC 2006-11-01)

    Audio
    ID : 1
    Format : AC-3
    Format/Info : Audio Coding 3
    Mode extension : CM (complete main)
    Codec ID : 2000
    Duration : 2h 7mn
    Bit rate mode : Constant
    Bit rate : 448 Kbps
    Channel(s) : 6 channels
    *****************************************************************







    A film rövid tartalma:
    A világ legrémesebb gonosztevője, Hannibal Lecter (Anthony Hopkins) megszökött és Firenzében éli a jómódúak boldog életét. Egyik áldozata, az emberi roncsként vegetáló milliomos, Mason Verger (Gary Oldman) bosszúra éhesen kutatja a vérszomjas doktort. Egy tanú felbukkanását követően ismét remény nyílik rá, hogy elfogja Lectert, akit azonban csak egyetlen személy tud Amerikába csalogatni: Clarice Starling (Julianne Moore) FBI-ügynök. Ha sikerül őt rávenni arra, hogy újra az emberevő pszichológus nyomába eredjen, Hannibal végre előjön rejtekhelyéről, hogy befejezze a halálos játékot.

    ---------------------------------------------------------------------










    NÉZD MEG A TÖBBI FELTÖLTÉSEMET IS!


    studio55
    Leskelődő
    Leskelődő

    Hozzászólások száma : 4
    Join date : 2012. Apr. 12.

    Re: Ridley Scott rendezésével Filmek.

    Témanyitás  studio55 on Kedd. Máj. 01, 2012 7:45 pm

    Smile Köszi

    Admin
    Admin
    Admin

    Hozzászólások száma : 493
    Join date : 2012. Feb. 06.
    Age : 68
    Tartózkodási hely : Bp.

    Mennyei Királyság 2005.| Szinkronos amerikai thriller|BRRip |data.hu

    Témanyitás  Admin on Szer. Máj. 02, 2012 12:18 pm










    Mennyei Királyság (Kingdom of Heaven) 2005. - Datán.


    színes, magyarul beszélő, amerikai-angol-spanyol-német-marokkói kalandfilm, 145 perc, 2005

    Rendezte:
    Ridley Scott

    szereplő(k):
    Orlando Bloom (Balian de Ibelin)
    Jeremy Irons (Tiberias)
    Edward Norton (IV. Balduin)
    Liam Neeson (Godfrey)
    Csókás Márton (Guy de Lusignan)
    David Thewlis (Lovag)
    Ghassan Massoud (Szaladin)
    Eva Green (Sybilla)
    Nathalie Cox (Balian felesége)
    Brendan Gleeson (Reynald)
    Michael Fitzgerald (Humphrey)




    Kód:
    http://www.imdb.com/title/tt0320661/

    Relase:

    "Kingdom.of.Heaven.2005.HUN.BDRip.XviD-HDEvo"

    *****************************************************************
    Codec ID : XVID
    Codec ID/Hint : XviD
    Duration : 2h 24mn
    Bit rate : 1 571 Kbps
    Width : 640 pixels
    Height : 272 pixels
    Display aspect ratio : 2.35:1
    Frame rate : 23.976 fps
    Color space : YUV
    Chroma subsampling : 4:2:0
    Bit depth : 8 bits
    Scan type : Progressive
    Compression mode : Lossy
    Bits/(Pixel*Frame) : 0.376
    Stream size : 1.59 GiB (77%)
    Writing library : XviD 64

    Audio
    ID : 1
    Format : AC-3
    Format/Info : Audio Coding 3
    Mode extension : CM (complete main)
    Codec ID : 2000
    Duration : 2h 24mn
    Bit rate mode : Constant
    Bit rate : 448 Kbps
    Channel(s) : 6 channels
    *****************************************************************







    A film rövid tartalma:
    Balian (Orlando Bloom), a hitét vesztett patkolókovács származása ellenére a Szentföldre utazik, ahol akaratlanul is a háború középpontjába kerül. Ám Jeruzsálem hamis csillogása, a lovagok, Tiberias (Jeremy Irons) és Guy de Lusignan (Csókás Márton) ármánykodása közepette beleszeret a szépséges hercegnőbe, majd vezéralakja lesz az eseményeknek. Végül minden bátorságát és tudását összeszedve megpróbálja megvédeni a várost a legendás Szaladin (Ghassan Massoud) hatalmas seregével szemben.

    ---------------------------------------------------------------------










    NÉZD MEG A TÖBBI FELTÖLTÉSEMET IS!


    Admin
    Admin
    Admin

    Hozzászólások száma : 493
    Join date : 2012. Feb. 06.
    Age : 68
    Tartózkodási hely : Bp.

    Robin Hood 2010.| Szinkronos amerikai kalandfilm|BDRip |data.hu

    Témanyitás  Admin on Szer. Máj. 02, 2012 12:32 pm









    Robin Hood 2010. - Datán.


    színes, magyarul beszélő, amerikai-angol kalandfilm, 148 perc, 2010

    Rendezte:
    Ridley Scott

    szereplő(k):
    Russell Crowe (Robin Longstride/Robin Hood)
    Cate Blanchett (Marion Loxley)
    Max von Sydow (Sir Walter Loxley)
    Mark Strong (Sir Godfrey)
    Kevin Durand (Kicsi John)
    Mark Addy (Tuck barát)
    Scott Grimes (Will Scarlet)
    Matthew MacFadyen (Nottingham-i sheriff)
    Danny Huston (Oroszlánszívű Richárd)
    Oscar Isaac (John herceg)
    William Hurt (William Marshall)




    Kód:
    http://www.imdb.com/title/tt0955308/

    Relase:

    "Robin.Hood.2010.Directors.Cut.BDRip.XviD.Hun-HDTV"

    *****************************************************************
    Codec ID : XVID
    Codec ID/Hint : XviD
    Duration : 2h 29mn
    Bit rate : 1 417 Kbps
    Width : 720 pixels
    Height : 304 pixels
    Display aspect ratio : 2.35:1
    Frame rate : 25.000 fps
    Original frame rate : 23.976 fps
    Color space : YUV
    Chroma subsampling : 4:2:0
    Bit depth : 8 bits
    Scan type : Progressive
    Compression mode : Lossy
    Bits/(Pixel*Frame) : 0.259
    Stream size : 1.48 GiB (78%)
    Writing library : XviD 1.0.2 (UTC 2004-08-29)

    Audio
    ID : 1
    Format : AC-3
    Format/Info : Audio Coding 3
    Mode extension : CM (complete main)
    Codec ID : 2000
    Duration : 2h 29mn
    Bit rate mode : Constant
    Bit rate : 384 Kbps
    Channel(s) : 6 channels
    *****************************************************************







    A film rövid tartalma:
    Az Oscar-díjas Russell Crowe alakítja a legendás figurát, akit hosszú nemzedékek óta Robin Hoodként ismer a világ. Hőstettei beépültek populáris mitológiánkba, és megihlették mindazok képzeletét, akikben ott lakozik a kalandvágy és az igazságosság szelleme. A XIII. századi Angliában Robin és martalócainak csapata szembeszállnak a kisváros korrupt vezetőjével, és a korona ellen felkelést szítanak, amely örökre megváltoztatja a hatalmi egyensúlyt a világban. Akár tolvaj ő, akár hős, de ez a szegénysorból jött férfi lesz a szabadság örök szimbóluma népe számára.

    ---------------------------------------------------------------------










    NÉZD MEG A TÖBBI FELTÖLTÉSEMET IS!


    mona1326
    Töltögető
    Töltögető

    Hozzászólások száma : 18
    Join date : 2012. May. 03.

    Re: Ridley Scott rendezésével Filmek.

    Témanyitás  mona1326 on Csüt. Máj. 03, 2012 3:32 pm

    köszönöm

    Admin
    Admin
    Admin

    Hozzászólások száma : 493
    Join date : 2012. Feb. 06.
    Age : 68
    Tartózkodási hely : Bp.

    Trükkös fiúk 2003.| Szinkronos amerikai vígjáték| DVDRip| data.hu

    Témanyitás  Admin on Pént. Máj. 04, 2012 8:20 pm












    Trükkös fiúk (Matchstick Men) 2003. - Datán.


    színes, magyarul beszélő, amerikai vígjáték, 115 perc, 2003


    Rendezte:
    Martin Scorsese

    szereplő(k):
    Alison Lohman (Angela)
    Nicolas Cage (Roy)
    Sam Rockwell (Frank Mercer)
    Bruce McGill (Frechette)
    Sheila Kelley (Kathy)
    Steve Eastin (Mr. Schaffer)
    Bruce Altman (Dr. Klein)



    Kód:
    http://www.imdb.com/title/tt0325805/

    Relase:

    "Trukkos.fiuk.2003.DVDRip.Xvid.HunDub-BD"

    *****************************************************************
    Codec ID : XVID
    Codec ID/Hint : XviD
    Duration : 54mn 5s
    Bit rate : 1 413 Kbps
    Width : 656 pixels
    Height : 272 pixels
    Display aspect ratio : 2.40:1
    Frame rate : 25.000 fps
    Color space : YUV
    Chroma subsampling : 4:2:0
    Bit depth : 8 bits
    Scan type : Progressive
    Compression mode : Lossy
    Bits/(Pixel*Frame) : 0.317
    Stream size : 546 MiB (78%)
    Writing library : XviD 1.2.0.dev47 (UTC 2006-11-01)

    Audio
    ID : 1
    Format : AC-3
    Format/Info : Audio Coding 3
    Mode extension : CM (complete main)
    Codec ID : 2000
    Duration : 54mn 5s
    Bit rate mode : Constant
    Bit rate : 384 Kbps
    Channel(s) : 6 channels
    *****************************************************************








    A film rövid tartalma:
    A sokat tapasztalt Roy és ambiciózus védence, Frank profi szélhámosok. Kispályás svindlerek. Csalók. Nevezhetjük őket bárminek, tény, hogy az üzlet virágzik. Roy magánélete azonban messze nem ilyen sikeres. Kóros érzékenysége és annak tünetei már "munkája" sikerességét kezdik veszélyeztetni, ezért kénytelen pszichoanalitikushoz fordulni. Gyors segítséget vár, de a terápia váratlan fejleményeket hoz az életébe. Megtudja, hogy van egy 14 éves lánya, akinek létét sejtette ugyan, de sosem szerzett róla bizonyosságot. Ami azonban még zavarbaejtőbb, Angela találkozni akar apjával, akit sosem ismert.
    ---------------------------------------------------------------------










    NÉZD MEG A TÖBBI FELTÖLTÉSEMET IS!


    ordasmester
    Töltögető
    Töltögető

    Hozzászólások száma : 10
    Join date : 2012. Apr. 18.

    Re: Ridley Scott rendezésével Filmek.

    Témanyitás  ordasmester on Vas. Máj. 06, 2012 12:30 pm

    Köszi!

    mikula
    Leskelődő
    Leskelődő

    Hozzászólások száma : 5
    Join date : 2012. May. 22.

    Re: Ridley Scott rendezésével Filmek.

    Témanyitás  mikula on Kedd. Máj. 22, 2012 10:14 pm

    Köszönöm szépen.

    beritta
    Leskelődő
    Leskelődő

    Hozzászólások száma : 8
    Join date : 2012. May. 30.

    Re: Ridley Scott rendezésével Filmek.

    Témanyitás  beritta on Szer. Máj. 30, 2012 3:49 pm

    koszonom

    ucsi
    Leskelődő
    Leskelődő

    Hozzászólások száma : 1
    Join date : 2012. Feb. 18.

    Re: Ridley Scott rendezésével Filmek.

    Témanyitás  ucsi on Vas. Jún. 03, 2012 2:45 pm

    köszi

    ipx
    Fanatikus
    Fanatikus

    Hozzászólások száma : 30
    Join date : 2012. Apr. 01.

    Re: Ridley Scott rendezésével Filmek.

    Témanyitás  ipx on Kedd. Jún. 05, 2012 7:32 am

    kösz

    antalka
    Leskelődő
    Leskelődő

    Hozzászólások száma : 3
    Join date : 2012. Jun. 19.

    Re: Ridley Scott rendezésével Filmek.

    Témanyitás  antalka on Kedd. Jún. 19, 2012 5:07 am

    Szép gyüjtemény.Köszönöm!

    richmond81
    Leskelődő
    Leskelődő

    Hozzászólások száma : 3
    Join date : 2012. Jun. 24.

    Re: Ridley Scott rendezésével.

    Témanyitás  richmond81 on Vas. Jún. 24, 2012 8:51 am

    Koszi szepen!

    kormika
    Töltögető
    Töltögető

    Hozzászólások száma : 18
    Join date : 2012. Apr. 14.

    Köszönöm

    Témanyitás  kormika on Pént. Jún. 29, 2012 8:22 pm


    Csodás pack Very Happy ,nagyon köszönöm.

    mlendvai
    Törzsvendég
    Törzsvendég

    Hozzászólások száma : 69
    Join date : 2012. Jul. 05.

    Re: Ridley Scott rendezésével Filmek.

    Témanyitás  mlendvai on Szomb. Júl. 07, 2012 10:16 pm

    köszi

    dzsi123
    Fanatikus
    Fanatikus

    Hozzászólások száma : 21
    Join date : 2012. Mar. 17.

    köszi

    Témanyitás  dzsi123 on Vas. Júl. 08, 2012 5:37 am

    köszi

    szwetozár
    Fanatikus
    Fanatikus

    Hozzászólások száma : 28
    Join date : 2012. Jul. 13.

    Re: Ridley Scott rendezésével Filmek.

    Témanyitás  szwetozár on Pént. Júl. 13, 2012 4:50 pm

    Köszönöm a jó filmeket.

    pegasus11
    Leskelődő
    Leskelődő

    Hozzászólások száma : 7
    Join date : 2012. Jul. 18.

    Re: Ridley Scott rendezésével Filmek.

    Témanyitás  pegasus11 on Csüt. Júl. 19, 2012 8:13 pm

    köszike

    Sponsored content

    Re: Ridley Scott rendezésével Filmek.

    Témanyitás  Sponsored content Today at 10:51 am


      Pontos idő: Csüt. Dec. 08, 2016 10:51 am