Szólj hozzá a témához és letöltheted a tartalmat!

Prémium előfizetésel több szálon, várakozás nélküli letöltés, nagy sebességgel!


    IMAX - Volcanoes of the Deep Sea

    Share
    avatar
    axiss
    Data Uploader
    Data Uploader

    Hozzászólások száma : 223
    Join date : 2012. Aug. 11.
    Age : 57

    IMAX - Volcanoes of the Deep Sea

    Témanyitás  axiss on Kedd. Aug. 21, 2012 5:52 am

    IMAX - Volcanoes of the Deep Sea

    Mélytengeri vulkánok a Földön

    feliratos amerikai természetfilm

    Director: Stephen Low
    Writers: Alex Low, Stephen Low
    Stars: Ed Harris and Richard Lutz

    [Only admins are allowed to see this image]

    Csak a választ és ennek a helynek a varázsát kevesen tudják megtapasztalni.
    Ezek után nyomoz egy csapat tudós, 12000 láb mélyen az Óceán alatt és a felszínen is
    keresnek egy őskövületet. Egy megfoghatatlan lényt, melyek itt éltek több százmillió évvel
    a dinoszauruszok előtt. Fedezze fel a meghökkentő vízalatti vulkanikus élőhelyeket,
    tele furcsa élőlényekkel és tájakkal.


    [Only admins are allowed to see this image]

    Letöltés
    köszönet a feltöltőnek, hectortroy engedélyével

    [Only admins are allowed to see this image]

    Info

    Complete name : IMAX-Volcanoes.Of.The.Deep.Sea.Eng.HunSub.mkv
    Format : Matroska
    File size : 2.19 GiB
    Duration : 44mn 46s
    Overall bit rate : 7 000 Kbps
    Movie name : 00005
    Encoded date : UTC 2011-08-28 08:11:07
    Writing application : mkvmerge v2.5.1 ('He Wasn't There') built on Feb 22 2009 18:19:47
    Writing library : libebml v0.7.7 + libmatroska v0.8.1
    Video #1
    ID : 1
    Format : AVC
    Format/Info : Advanced Video Codec
    Format profile : High@L4.1
    Format settings, CABAC : Yes
    Format settings, ReFrames : 9 frames
    Codec ID : V_MPEG4/ISO/AVC
    Duration : 44mn 46s
    Bit rate mode : Variable
    Bit rate : 5 496 Kbps
    Maximum bit rate : 40.0 Mbps
    Width : 1 280 pixels
    Height : 720 pixels
    Display aspect ratio : 16:9
    Frame rate : 23.976 fps
    Color space : YUV
    Chroma subsampling : 4:2:0
    Bit depth : 8 bits
    Scan type : Progressive
    Bits/(Pixel*Frame) : 0.249
    Stream size : 1.67 GiB (76%)
    Audio #2
    ID : 2
    Format : DTS
    Format/Info : Digital Theater Systems
    Codec ID : A_DTS
    Duration : 44mn 46s
    Bit rate mode : Constant
    Bit rate : 1 510 Kbps
    Channel(s) : 6 channels
    Channel positions : Front: L C R, Side: L R, LFE
    Sampling rate : 48.0 KHz
    Bit depth : 24 bits
    Compression mode : Lossy
    Stream size : 483 MiB (22%)
    Language : English
    Text #3
    ID : 3
    Format : UTF-8
    Codec ID : S_TEXT/UTF8
    Codec ID/Info : UTF-8 Plain Text
    Language : Hungarian
    Text #4
    ID : 4
    Format : ASS
    Codec ID : S_TEXT/ASS
    Codec ID/Info : Advanced Sub Station Alpha
    Compression mode : Lossless
    Language : English

      Pontos idő: Hétf. Márc. 27, 2017 11:15 pm