Szólj hozzá a témához és letöltheted a tartalmat!

Prémium előfizetésel több szálon, várakozás nélküli letöltés, nagy sebességgel!


    IMAX - Grand Canyon Adventure River at Risk

    Share
    avatar
    axiss
    Data Uploader
    Data Uploader

    Hozzászólások száma : 223
    Join date : 2012. Aug. 11.
    Age : 58

    IMAX - Grand Canyon Adventure River at Risk

    Témanyitás  axiss on Kedd. Aug. 21, 2012 4:51 pm

    IMAX - Grand Canyon Adventure River at Risk

    Kaland a Grand kanyonban

    Feliratos amerikai dokumentumfilm

    Director: Greg MacGillivray
    Writers: Jack Stephens, Stephen Judson
    Stars: Wade Davis, Nikki Kelly and Robert Redford

    [Only admins are allowed to see this image]

    A Föld egyik legszebb,legvadregényesebb tájára utazunk.
    Megismerjük a kanyon mai történetét a multat az Asanazi indiánok életének egy részét.
    Sehol a földön nincs mégegy ilyen csodálatos hely.
    A hossza 450 km,a legnagyobb magassága 1860m.Colorado folyón utazunk,felfedezők nyomait keressük.
    A Hoover-gát problámáit is érinti a film.Melegen ajánlom minden természetet kedvelő embernek.


    [Only admins are allowed to see this image]

    Letöltés

    köszönet a feltöltőnek, hectortroy engedélyével

    [Only admins are allowed to see this image]

    Info

    Complete name : IMAX-Grand.Canyon.Adventure.River.at.Risk.Eng.HunSub.mkv
    Format : Matroska
    File size : 3.00 GiB
    Duration : 44mn 40s
    Overall bit rate : 9 610 Kbps
    Movie name : "IMAX-Grand.Canyon.Adventure:River.at.Risk.2008/Encoded.by.EOS/Released.for.HD-Bits.ro"
    Encoded date : UTC 2011-05-01 08:05:58
    Writing application : mkvmerge v2.2.0 ('Turn It On Again') built on Mar 4 2008 13:20:25
    Writing library : libebml v0.7.7 + libmatroska v0.8.1
    Video #1
    ID : 1
    Format : AVC
    Format/Info : Advanced Video Codec
    Format profile : High@L4.1
    Format settings, CABAC : Yes
    Format settings, ReFrames : 9 frames
    Codec ID : V_MPEG4/ISO/AVC
    Duration : 44mn 40s
    Bit rate : 8 112 Kbps
    Width : 1 280 pixels
    Height : 720 pixels
    Display aspect ratio : 16:9
    Frame rate : 23.976 fps
    Color space : YUV
    Chroma subsampling : 4:2:0
    Bit depth : 8 bits
    Scan type : Progressive
    Bits/(Pixel*Frame) : 0.367
    Stream size : 2.47 GiB (82%)
    Title : [Only admins are allowed to see this link]
    Writing library : x264 core 80 r1376M 3feaec2
    Language : English
    Audio #2
    ID : 2
    Format : DTS
    Format/Info : Digital Theater Systems
    Codec ID : A_DTS
    Duration : 44mn 40s
    Bit rate mode : Constant
    Bit rate : 1 510 Kbps
    Channel(s) : 6 channels
    Channel positions : Front: L C R, Side: L R, LFE
    Sampling rate : 48.0 KHz
    Bit depth : 16 bits
    Compression mode : Lossy
    Stream size : 482 MiB (16%)
    Title : [Only admins are allowed to see this link]
    Language : English
    Text #3
    ID : 3
    Format : UTF-8
    Codec ID : S_TEXT/UTF8
    Codec ID/Info : UTF-8 Plain Text
    Language : Hungarian

    pro-ba
    Töltögető
    Töltögető

    Hozzászólások száma : 15
    Join date : 2012. Feb. 18.

    Re: IMAX - Grand Canyon Adventure River at Risk

    Témanyitás  pro-ba on Szomb. Okt. 06, 2012 9:27 pm

    köszönöm

    peppe963
    Fanatikus
    Fanatikus

    Hozzászólások száma : 20
    Join date : 2012. Oct. 08.

    Re: IMAX - Grand Canyon Adventure River at Risk

    Témanyitás  peppe963 on Hétf. Okt. 08, 2012 5:03 pm

    thx

    SeaHawk
    Töltögető
    Töltögető

    Hozzászólások száma : 15
    Join date : 2013. Jun. 08.

    Re: IMAX - Grand Canyon Adventure River at Risk

    Témanyitás  SeaHawk on Pént. Aug. 16, 2013 7:54 pm

    Köszönöm!

    Sponsored content

    Re: IMAX - Grand Canyon Adventure River at Risk

    Témanyitás  Sponsored content


      Pontos idő: Hétf. Jún. 26, 2017 3:02 am