Szólj hozzá a témához és letöltheted a tartalmat!

Prémium előfizetésel több szálon, várakozás nélküli letöltés, nagy sebességgel!


    IMAX - African Cats

    Share

    axiss
    Data Uploader
    Data Uploader

    Hozzászólások száma : 223
    Join date : 2012. Aug. 11.
    Age : 57

    IMAX - African Cats

    Témanyitás  axiss on Kedd. Aug. 21, 2012 4:57 pm

    IMAX - African Cats

    Afrikai macskák - A bátorság birodalma

    szinkronizált természetfilm

    [Only admins are allowed to see this image]

    Az “Afrikai nagymacskák” című Disney-természetfilm a való életből lopott történetet mutat be, melynek a Föld talán egyik legvadregényesebb helyszíne adja a hátteret. A hús-vér történet a szavanna fenséges királyainak valódi szeretettel, humorral és elszántsággal átitatott világát tárja elénk. Mara az elbűvölő oroszlánkölyök, akit anyja ereje, jó kedélye és bölcsessége segít a felnőtté válás rögös útján. Sita a félelmet nem ismerő, egyedülálló gepárdanya öt csintalan újszülöttjével. Fang a büszke falkavezér, aki családját védelmezi egy egykoron száműzött oroszlán ellen.
    A Disney-természetfilm újra életre kelti az „Oroszlánkirályt”, ezúttal széles vásznon a való élet kalandjait.
    A megható történetben egyszerre van jelen a családi kötelék ereje és a vadon fortélyos világa.


    [Only admins are allowed to see this image]

    Letöltés

    köszönet a feltöltőnek, hectortroy engedélyével

    [Only admins are allowed to see this image]

    Info

    Complete name : IMAX-African.Cats.Hun.mkv
    Format : Matroska
    File size : 7.90 GiB
    Duration : 1h 29mn
    Overall bit rate : 12.7 Mbps
    Encoded date : UTC 2012-01-27 17:51:49
    Writing application : mkvmerge v2.9.8 ('C'est le bon') built on Aug 13 2009 12:49:06
    Writing library : libebml v0.7.7 + libmatroska v0.8.1
    Video #1
    ID : 1
    Format : AVC
    Format/Info : Advanced Video Codec
    Format profile : High@L4.1
    Format settings, CABAC : Yes
    Format settings, ReFrames : 4 frames
    Format settings, GOP : M=1, N=43
    Codec ID : V_MPEG4/ISO/AVC
    Duration : 1h 29mn
    Bit rate : 11.6 Mbps
    Width : 1 920 pixels
    Height : 1 080 pixels
    Display aspect ratio : 16:9
    Frame rate : 23.976 fps
    Color space : YUV
    Chroma subsampling : 4:2:0
    Bit depth : 8 bits
    Scan type : Progressive
    Bits/(Pixel*Frame) : 0.234
    Stream size : 7.11 GiB (90%)
    Writing library : x264 core 116 r2037 f8ebd4a
    Language : English
    Audio #2
    ID : 2
    Format : AC-3
    Format/Info : Audio Coding 3
    Mode extension : CM (complete main)
    Codec ID : A_AC3
    Duration : 1h 29mn
    Bit rate mode : Constant
    Bit rate : 384 Kbps
    Channel(s) : 6 channels
    Channel positions : Front: L C R, Side: L R, LFE
    Sampling rate : 48.0 KHz
    Bit depth : 16 bits
    Compression mode : Lossy
    Stream size : 246 MiB (3%)
    Title : ac3.6ch.384kbps.hundub
    Language : Hungarian
    Audio #4
    ID : 4
    Format : AC-3
    Format/Info : Audio Coding 3
    Mode extension : CM (complete main)
    Codec ID : A_AC3
    Duration : 1h 29mn
    Bit rate mode : Constant
    Bit rate : 640 Kbps
    Channel(s) : 6 channels
    Channel positions : Front: L C R, Side: L R, LFE
    Sampling rate : 48.0 KHz
    Bit depth : 16 bits
    Compression mode : Lossy
    Stream size : 409 MiB (5%)
    Title : ac3.6ch.640kbps.engdub
    Language : English
    Text #3
    ID : 3
    Format : UTF-8
    Codec ID : S_TEXT/UTF8
    Codec ID/Info : UTF-8 Plain Text
    Title : srt.engsub
    Language : English
    Text #5
    ID : 5
    Format : UTF-8
    Codec ID : S_TEXT/UTF8
    Codec ID/Info : UTF-8 Plain Text
    Title : srt.hunsub
    Language : Hungarian

    delsza
    Leskelődő
    Leskelődő

    Hozzászólások száma : 3
    Join date : 2012. Mar. 31.

    Re: IMAX - African Cats

    Témanyitás  delsza on Kedd. Okt. 09, 2012 3:42 pm

    király!!!

      Pontos idő: Vas. Feb. 26, 2017 4:14 am