Szólj hozzá a témához és letöltheted a tartalmat!

Prémium előfizetésel több szálon, várakozás nélküli letöltés, nagy sebességgel!


    IMAX - Ring of Fire

    Share
    avatar
    axiss
    Data Uploader
    Data Uploader

    Hozzászólások száma : 223
    Join date : 2012. Aug. 11.
    Age : 57

    IMAX - Ring of Fire

    Témanyitás  axiss on Kedd. Aug. 21, 2012 5:05 pm

    IMAX - Ring of Fire

    Tűzgyűrű

    HDTV
    Feliratos amerikai dokumentumfilm

    Director: George Casey
    Writers: George Casey, David Hamilton, and 2 more credits
    Stars: Robert Foxworth, Norman Banks and Lawrence Blair

    [Only admins are allowed to see this image]

    A Tűzgyűrű lélegzetelállító közelségből mutatja meg a vulkánok krátereit és az egész csendes-óceáni partvidéket megrázó földrengéseket.
    A mérhetetlen vulkáni erőkről, a Szent András törésvonal mentén élő közel félmilliárd embert nap mint nap fenyegető földmozgásokról készült díjnyertes filmet a világ IMAX mozijaiban milliók láthatták.
    Szinte érezhető a hőség azokból a képsorokból, amelyek egy új vulkán keletkezését mutatják be Chilében, vagy éppen a híres-hírhedt Mount St. Helens 1980-as kitörését örökítik meg.
    Ezeknek a ritka és máshol nem látható felvételeknek a segítségével tanúi lehetünk a Föld kimeríthetetlen energiája által táplált legfélelmetesebb természeti erők tombolásának.
    Láthatjuk a japán lakosság éves kiürítési gyakorlatát, amelyet az igen aktív vulkáni tevékenységet folytató Sakurajima közelsége miatt szinte már megszoktak,
    és láthatjuk a tényleges menekülés megdöbbentő képsorait, amikor a vulkán hamuesővel kísért kitörést produkál. Számítógépes animáció segítségével behatolunk a Föld belsejébe,
    ahol magyarázatot kapunk a vulkánkitörések és a pusztító földrengések keletkezésének okaira.

    E pusztító erők hatását érzékeltetik az 1989-es San Francisco-i földmozgások során készült képsorok, amelyekben láthatjuk, milyen elementáris erők döntik romba ezt a nagyvárost.


    [Only admins are allowed to see this image]

    Letöltés

    köszönet a feltöltőnek, hectortroy engedélyével

    [Only admins are allowed to see this image]

    Info

    Complete name : IMAX-Ring.Of.Fire.Hdtv.1080p.Eng.HunSub.mkv
    Format : Matroska
    File size : 2.73 GiB
    Duration : 37mn 57s
    Overall bit rate : 10.3 Mbps
    Encoded date : UTC 2011-04-21 16:46:10
    Writing application : mkvmerge v2.2.0 ('Turn It On Again') built on Mar 4 2008 13:20:25
    Writing library : libebml v0.7.7 + libmatroska v0.8.1
    Video #1
    ID : 1
    Format : MPEG Video
    Format version : Version 2
    Format profile : Main@High
    Format settings, BVOP : No
    Format settings, Matrix : Custom
    Codec ID : V_MPEG2
    Codec ID/Info : MPEG 1 or 2 Video
    Duration : 37mn 57s
    Bit rate mode : Variable
    Bit rate : 9 705 Kbps
    Nominal bit rate : 80.0 Mbps
    Width : 1 920 pixels
    Height : 1 080 pixels
    Display aspect ratio : 16:9
    Frame rate : 29.970 fps
    Standard : Component
    Color space : YUV
    Chroma subsampling : 4:2:0
    Bit depth : 8 bits
    Scan type : Interlaced
    Scan order : Top Field First
    Compression mode : Lossy
    Bits/(Pixel*Frame) : 0.156
    Stream size : 2.57 GiB (94%)
    Language : English
    Audio #2
    ID : 2
    Format : AC-3
    Format/Info : Audio Coding 3
    Mode extension : CM (complete main)
    Codec ID : A_AC3
    Duration : 37mn 57s
    Bit rate mode : Constant
    Bit rate : 384 Kbps
    Channel(s) : 6 channels
    Channel positions : Front: L C R, Side: L R, LFE
    Sampling rate : 48.0 KHz
    Bit depth : 16 bits
    Compression mode : Lossy
    Stream size : 104 MiB (4%)
    Language : English
    Text #3
    ID : 3
    Format : UTF-8
    Codec ID : S_TEXT/UTF8
    Codec ID/Info : UTF-8 Plain Text
    Language : Hungarian

      Pontos idő: Csüt. Márc. 23, 2017 7:04 am