Szólj hozzá a témához és letöltheted a tartalmat!

Prémium előfizetésel több szálon, várakozás nélküli letöltés, nagy sebességgel!


    A Hubble 3D. SBS

    Share
    avatar
    axiss
    Data Uploader
    Data Uploader

    Hozzászólások száma : 223
    Join date : 2012. Aug. 11.
    Age : 58

    A Hubble 3D. SBS

    Témanyitás  axiss on Kedd Aug. 21, 2012 5:16 pm

    A Hubble 3D. SBS

    színes, feliratos kanadai dokumentum film, 2010

    Director: Toni Myers
    Writers: Toni Myers, Frank Summers, and 1 more credit »
    Stars: Leonardo DiCaprio, K. Megan McArthur and Scott D. Altman

    [Only admins are allowed to see this image]

    Hubble űrteleszkóp meghibásodása miatt, 7 asztronauta indult az űrbe,
    hogy megjavítsa.Erre az útra az IMAX 3D kamera is elkísérte őket,
    és az így végzett munka minden részletét rögzítette.
    Ezekből a képekből és az űrteleszkóp által az űr mélységeiről készített
    felvételekből született meg a film.


    [Only admins are allowed to see this image]

    Letöltés

    köszönet a feltöltőnek, hectortroy engedélyével
    Magyar felirat mellékelve
    [Only admins are allowed to see this image]

    [Only admins are allowed to see this image]

    Info

    Complete name : IMAX-Hubble3D.mkv
    Format : Matroska
    File size : 4.02 GiB
    Duration : 43mn 59s
    Overall bit rate : 13.1 Mbps
    Movie name : Hubble_3D.Title1000.Bluray3DRip
    Encoded date : UTC 2011-03-30 20:36:07
    Writing application : mkvmerge v4.6.0 ('Still Crazy After All These Years') built on Mar 10 2011 02:50:32
    Writing library : libebml v1.2.0 + libmatroska v1.1.0
    Video #1
    ID : 1
    Format : AVC
    Format/Info : Advanced Video Codec
    Format profile : High@L4.1
    Format settings, CABAC : Yes
    Format settings, ReFrames : 2 frames
    Format settings, GOP : M=3, N=24
    Muxing mode : Header stripping
    Codec ID : V_MPEG4/ISO/AVC
    Duration : 43mn 59s
    Bit rate mode : Variable
    Bit rate : 11.3 Mbps
    Maximum bit rate : 30.0 Mbps
    Width : 1 920 pixels
    Height : 1 080 pixels
    Display aspect ratio : 16:9
    Frame rate : 23.976 fps
    Color space : YUV
    Chroma subsampling : 4:2:0
    Bit depth : 8 bits
    Scan type : Progressive
    Bits/(Pixel*Frame) : 0.228
    Stream size : 3.48 GiB (86%)
    Writing library : x264 core
    Color primaries : BT.709-5, BT.1361, IEC 61966-2-4, SMPTE RP177
    Transfer characteristics : BT.709-5, BT.1361
    Matrix coefficients : BT.709-5, BT.1361, IEC 61966-2-4 709, SMPTE RP177
    Audio #2
    ID : 2
    Format : DTS
    Format/Info : Digital Theater Systems
    Codec ID : A_DTS
    Duration : 43mn 59s
    Bit rate mode : Constant
    Bit rate : 1 510 Kbps
    Channel(s) : 6 channels
    Channel positions : Front: L C R, Side: L R, LFE
    Sampling rate : 48.0 KHz
    Bit depth : 24 bits
    Compression mode : Lossy
    Stream size : 475 MiB (12%)
    Language : English

    bodae
    Leskelődő
    Leskelődő

    Hozzászólások száma : 3
    Join date : 2012. Sep. 01.

    Re: A Hubble 3D. SBS

    Témanyitás  bodae on Szomb. Szept. 01, 2012 7:37 am

    confused

    yeteee
    Töltögető
    Töltögető

    Hozzászólások száma : 12
    Join date : 2012. Sep. 23.

    Re: A Hubble 3D. SBS

    Témanyitás  yeteee on Vas. Szept. 23, 2012 6:23 pm

    Köszönöm !

    bodae
    Leskelődő
    Leskelődő

    Hozzászólások száma : 3
    Join date : 2012. Sep. 01.

    .

    Témanyitás  bodae on Szomb. Okt. 20, 2012 9:03 pm

    Smile

    jotika
    Fanatikus
    Fanatikus

    Hozzászólások száma : 45
    Join date : 2012. Jun. 21.

    Re: A Hubble 3D. SBS

    Témanyitás  jotika on Kedd Dec. 18, 2012 9:30 am

    kösz.

    Sponsored content

    Re: A Hubble 3D. SBS

    Témanyitás  Sponsored content


      Pontos idő: Szomb. Szept. 23, 2017 12:12 pm