Szólj hozzá a témához és letöltheted a tartalmat!

Prémium előfizetésel több szálon, várakozás nélküli letöltés, nagy sebességgel!


    IMAX - Ocean Wonderland

    Share
    avatar
    axiss
    Data Uploader
    Data Uploader

    Hozzászólások száma : 223
    Join date : 2012. Aug. 11.
    Age : 58

    IMAX - Ocean Wonderland

    Témanyitás  axiss on Kedd. Aug. 21, 2012 5:23 pm

    IMAX - Ocean Wonderland

    A csodálatos Óceán

    Feliratos amerikai természet-dokumentumfilm, 2003

    [Only admins are allowed to see this image]

    Director: Jean-Jacques Mantello
    Writer: Mark Spalding

    Az újabb csodákat bemutató sorozat következő epizódja a sekély lagunákat
    és korallzátonyokat veszi nagyító alá.
    Lélegzet el állító képsorok, ahogy azt az imax-filmeknél megszokhattunk.
    Miképp telepeidik a tenger élővilága a vizbe kerül és elmerült tárgyakra,
    hogyan vadásznak lakóik.
    Ismét hihetetlen látványban lehet részünk és
    olyan különlegességet kínál amely maradandót hagy az emlékezetünkben...


    [Only admins are allowed to see this image]



    köszönet a feltöltőnek, hectortroy engedélyével

    [Only admins are allowed to see this image]

    [Only admins are allowed to see this image]

    Info

    Complete name : IMAX-Ocean.Wonderland.1080p.Eng.HunSub.mkv
    Format : Matroska
    File size : 6.76 GiB
    Duration : 40mn 39s
    Overall bit rate : 23.8 Mbps
    Encoded date : UTC 2011-04-16 12:00:05
    Writing application : mkvmerge v2.2.0 ('Turn It On Again') built on Mar 4 2008 13:20:25
    Writing library : libebml v0.7.7 + libmatroska v0.8.1
    Video #1
    ID : 1
    Format : AVC
    Format/Info : Advanced Video Codec
    Format profile : High@L4.1
    Format settings, CABAC : Yes
    Format settings, ReFrames : 2 frames
    Codec ID : V_MPEG4/ISO/AVC
    Duration : 40mn 39s
    Bit rate mode : Variable
    Bit rate : 21.8 Mbps
    Width : 1 920 pixels
    Height : 1 080 pixels
    Display aspect ratio : 16:9
    Frame rate : 25.000 fps
    Original frame rate : 23.976 fps
    Color space : YUV
    Chroma subsampling : 4:2:0
    Bit depth : 8 bits
    Scan type : Progressive
    Bits/(Pixel*Frame) : 0.421
    Stream size : 6.20 GiB (92%)
    Audio #2
    ID : 2
    Format : DTS
    Format/Info : Digital Theater Systems
    Codec ID : A_DTS
    Duration : 40mn 39s
    Bit rate mode : Constant
    Bit rate : 1 510 Kbps
    Channel(s) : 6 channels
    Channel positions : Front: L C R, Side: L R, LFE
    Sampling rate : 48.0 KHz
    Bit depth : 16 bits
    Compression mode : Lossy
    Stream size : 439 MiB (6%)
    Text #3
    ID : 3
    Format : UTF-8
    Codec ID : S_TEXT/UTF8
    Codec ID/Info : UTF-8 Plain Text
    [strike]

      Pontos idő: Szer. Máj. 24, 2017 5:22 am