Szólj hozzá a témához és letöltheted a tartalmat!

Prémium előfizetésel több szálon, várakozás nélküli letöltés, nagy sebességgel!


    IMAX - Amazing Caves

    Share
    avatar
    axiss
    Data Uploader
    Data Uploader

    Hozzászólások száma : 223
    Join date : 2012. Aug. 11.
    Age : 58

    IMAX - Amazing Caves

    Témanyitás  axiss on Kedd. Aug. 21, 2012 8:53 pm

    IMAX - Amazing Caves

    Barlangok titkai

    Feliratos amerikai természet-dokumentumfilm, 2001

    Director: Stephen Judson
    Writer: Jack Stephens
    Stars: Liam Neeson, Steve Atteberry and Nancy Holler Aulenbach

    [Only admins are allowed to see this image]

    A barlangok,és földalatti tavernák világába lépünk,melynek helyszine a Colorado Grand Kanyon.
    Azurkék folyó,hatalmas sziklafalak,és mély és titokzatos barlangok.
    Lebilincselő szépségű film,1080p felbontásban.
    Kihagyhatatlan!


    [Only admins are allowed to see this image]

    Letöltés

    köszönet a feltöltőnek, hectortroy engedélyével

    [Only admins are allowed to see this image]

    [Only admins are allowed to see this image]

    Info:

    Complete name IMAX-Amazing.Caves.Eng.HunSub.mkv
    Format : Matroska
    File size : 2.15 GiB
    Duration : 39mn 18s
    Overall bit rate : 7 824 Kbps
    Encoded date : UTC 2011-04-21 20:09:58
    Writing application : mkvmerge v2.2.0 ('Turn It On Again') built on Mar 4 2008 13:20:25
    Writing library : libebml v0.7.7 + libmatroska v0.8.1
    Video #1
    ID : 1
    Format : AVC
    Format/Info : Advanced Video Codec
    Format profile : High@L4.1
    Format settings, CABAC : Yes
    Format settings, ReFrames : 4 frames
    Format settings, GOP : M=4, N=49
    Codec ID : V_MPEG4/ISO/AVC
    Duration : 39mn 18s
    Bit rate : 6 158 Kbps
    Nominal bit rate : 8 136 Kbps
    Width : 1 920 pixels
    Height : 1 080 pixels
    Display aspect ratio : 16:9
    Frame rate : 23.976 fps
    Color space : YUV
    Chroma subsampling : 4:2:0
    Bit depth : 8 bits
    Scan type : Progressive
    Bits/(Pixel*Frame) : 0.124
    Stream size : 1.69 GiB (79%)
    Writing library : x264 core 104 r1713 c276662
    Language : English
    Audio #2
    ID : 2
    Format : DTS
    Format/Info : Digital Theater Systems
    Codec ID : A_DTS
    Duration : 39mn 18s
    Bit rate mode : Constant
    Bit rate : 1 510 Kbps
    Channel(s) : 6 channels
    Channel positions : Front: L C R, Side: L R, LFE
    Sampling rate : 48.0 KHz
    Bit depth : 24 bits
    Compression mode : Lossy
    Stream size : 425 MiB (19%)
    Language : English
    Text #3
    ID : 3
    Format : UTF-8
    Codec ID : S_TEXT/UTF8
    Codec ID/Info : UTF-8 Plain Text
    Language : Hungarian


    A hozzászólást axiss összesen 1 alkalommal szerkesztette, legutóbb Vas. Júl. 28, 2013 6:51 am-kor.

    pro-ba
    Töltögető
    Töltögető

    Hozzászólások száma : 15
    Join date : 2012. Feb. 18.

    Re: IMAX - Amazing Caves

    Témanyitás  pro-ba on Vas. Okt. 07, 2012 9:37 pm

    Köszönöm

    posi
    Fanatikus
    Fanatikus

    Hozzászólások száma : 27
    Join date : 2012. May. 27.

    Re: IMAX - Amazing Caves

    Témanyitás  posi on Hétf. Jún. 24, 2013 6:26 am

    Köszönet a munkádért.

    doresz2
    Data - Fájlmegosztó
    Data - Fájlmegosztó

    Hozzászólások száma : 119
    Join date : 2012. Mar. 28.

    Re: IMAX - Amazing Caves

    Témanyitás  doresz2 on Szomb. Júl. 27, 2013 3:28 pm

    Törölve
    avatar
    axiss
    Data Uploader
    Data Uploader

    Hozzászólások száma : 223
    Join date : 2012. Aug. 11.
    Age : 58

    Re: IMAX - Amazing Caves

    Témanyitás  axiss on Vas. Júl. 28, 2013 6:52 am

    Újra töltve

    Sponsored content

    Re: IMAX - Amazing Caves

    Témanyitás  Sponsored content


      Pontos idő: Kedd. Jún. 27, 2017 2:45 pm