Szólj hozzá a témához és letöltheted a tartalmat!

Prémium előfizetésel több szálon, várakozás nélküli letöltés, nagy sebességgel!


    IMAX - Destiny in Space

    Share
    avatar
    axiss
    Data Uploader
    Data Uploader

    Hozzászólások száma : 223
    Join date : 2012. Aug. 11.
    Age : 58

    IMAX - Destiny in Space

    Témanyitás  axiss on Kedd. Aug. 21, 2012 9:02 pm

    IMAX - Destiny in Space

    Az űr fogságában
    Feliratos amerikai, dokumentumfilm, 1994

    Directors: Ben Burtt, Phyllis Ferguson, and 2 more credits »
    Writer: Toni Myers
    Stars: Roberta L. Bondar, Eric DeJong and Ronald J. Grabe

    [Only admins are allowed to see this image]

    Az űr fogságában tisztelgés a naprendszer kutatói előtt.
    Egy műhold segítségével földkörüli pályáról tekinthetünk vissza bolygónkra,
    végigkísérhetjük a Hubble űrteleszkóp telepítését és javítását,
    majd sok millió kilométert utazva megszemlélhetjük a Vénusz és a Mars rejtelmes körvonalait.
    Az út végén olyan új bolygók létének bizonyítékát fedezhetjük fel,
    amelyek felszínére lépve talán ismeretlen életformákkal találkozhatnánk...


    [Only admins are allowed to see this image]

    Letöltés

    köszönet a feltöltőnek, hectortroy engedélyével

    [Only admins are allowed to see this image]

    [Only admins are allowed to see this image]

    Info

    Complete name : IMAX-Destiny.in.Space.HunSub.mkv
    Format : Matroska
    File size : 3.20 GiB
    Duration : 39mn 51s
    Overall bit rate : 11.5 Mbps
    Encoded date : UTC 2011-04-21 06:16:17
    Writing application : mkvmerge v2.2.0 ('Turn It On Again') built on Mar 4 2008 13:20:25
    Writing library : libebml v0.7.7 + libmatroska v0.8.1
    Video #1
    ID : 1
    Format : AVC
    Format/Info : Advanced Video Codec
    Format profile : High@L4.1
    Format settings, CABAC : Yes
    Format settings, ReFrames : 5 frames
    Codec ID : V_MPEG4/ISO/AVC
    Duration : 39mn 51s
    Bit rate : 10.9 Mbps
    Width : 1 920 pixels
    Height : 1 080 pixels
    Display aspect ratio : 16:9
    Frame rate : 23.976 fps
    Color space : YUV
    Chroma subsampling : 4:2:0
    Bit depth : 8 bits
    Scan type : Progressive
    Bits/(Pixel*Frame) : 0.218
    Stream size : 2.96 GiB (92%)
    Audio #2
    ID : 2
    Format : AC-3
    Format/Info : Audio Coding 3
    Mode extension : CM (complete main)
    Codec ID : A_AC3
    Duration : 39mn 51s
    Bit rate mode : Constant
    Bit rate : 640 Kbps
    Channel(s) : 6 channels
    Channel positions : Front: L C R, Side: L R, LFE
    Sampling rate : 48.0 KHz
    Bit depth : 16 bits
    Compression mode : Lossy
    Stream size : 182 MiB (6%)
    Text #3
    ID : 3
    Format : UTF-8
    Codec ID : S_TEXT/UTF8
    Codec ID/Info : UTF-8 Plain Text
    Language : Hungarian

      Pontos idő: Kedd. Júl. 25, 2017 5:31 am