Szólj hozzá a témához és letöltheted a tartalmat!

Prémium előfizetésel több szálon, várakozás nélküli letöltés, nagy sebességgel!


    IMAX - Blue Planet

    Share
    avatar
    axiss
    Data Uploader
    Data Uploader

    Hozzászólások száma : 223
    Join date : 2012. Aug. 11.
    Age : 58

    IMAX - Blue Planet

    Témanyitás  axiss on Csüt. Aug. 30, 2012 6:31 pm

    A kék bolygó
    (Blue Planet)
    színes, feliratos, amerikai dokumentumfilm,1990

    Director: Ben Burtt
    Writer: Toni Myers
    Stars: James Buchli and Toni Myers

    [Only admins are allowed to see this image]

    300 kilométerrel a Föld felett, az űrből nézve a Kék bolygót lenyűgözőnek látjuk, a közelről oly ismerős tájak elvarázsolt vidéknek tűnnek.
    A Himalája fenséges vonulatai, a hatalmas kiterjedésű Namíb-sivatag homokdűnéi, az ékkövekként tündöklő Karib-szigetek, az Amazonas esőerdejei,
    a Szerengeti burjánzó legelői legszebb énjüket tárják elénk. Tanúi lehetünk a természet mindent elsöprő erejének is, a vulkánok, hurrikánok
    és földrengések pusztításának, és azt is láthatjuk, mekkora károkat tud okozni a Föld legkegyetlenebb ragadozója, az ember.


    [Only admins are allowed to see this image]



    köszönet a feltöltőnek, hectortroy engedélyével

    [Only admins are allowed to see this image]

    [Only admins are allowed to see this image]

    Info:

    Complete name : IMAX-Blue.Planet.HunSub.mkv
    Format : Matroska
    File size : 2.19 GiB
    Duration : 42mn 26s
    Overall bit rate : 7 379 Kbps
    Encoded date : UTC 2011-04-20 19:01:57
    Writing application : mkvmerge v2.2.0 ('Turn It On Again') built on Mar 4 2008 13:20:25
    Writing library : libebml v0.7.7 + libmatroska v0.8.1
    Video #1
    ID : 1
    Format : AVC
    Format/Info : Advanced Video Codec
    Format profile : High@L5.1
    Format settings, CABAC : Yes
    Format settings, ReFrames : 8 frames
    Codec ID : V_MPEG4/ISO/AVC
    Duration : 42mn 26s
    Bit rate : 6 734 Kbps
    Width : 1 280 pixels
    Height : 720 pixels
    Display aspect ratio : 16:9
    Frame rate : 23.976 fps
    Color space : YUV
    Chroma subsampling : 4:2:0
    Bit depth : 8 bits
    Scan type : Progressive
    Bits/(Pixel*Frame) : 0.305
    Stream size : 1.95 GiB (89%)
    Writing library : x264 core 56 svn-667C
    Audio #2
    ID : 2
    Format : AC-3
    Format/Info : Audio Coding 3
    Mode extension : CM (complete main)
    Codec ID : A_AC3
    Duration : 42mn 26s
    Bit rate mode : Constant
    Bit rate : 640 Kbps
    Channel(s) : 6 channels
    Channel positions : Front: L C R, Side: L R, LFE
    Sampling rate : 48.0 KHz
    Bit depth : 16 bits
    Compression mode : Lossy
    Stream size : 194 MiB (9%)
    Language : English
    Text #3
    ID : 3
    Format : UTF-8
    Codec ID : S_TEXT/UTF8
    Codec ID/Info : UTF-8 Plain Text
    Language : Hungarian
    Text #4
    ID : 4
    Format : UTF-8
    Codec ID : S_TEXT/UTF8
    Codec ID/Info : UTF-8 Plain Text
    Language : English

      Pontos idő: Kedd. Ápr. 25, 2017 9:31 am