Szólj hozzá a témához és letöltheted a tartalmat!

Prémium előfizetésel több szálon, várakozás nélküli letöltés, nagy sebességgel!


    IMAX-The Dream Is Alive

    Share
    avatar
    axiss
    Data Uploader
    Data Uploader

    Hozzászólások száma : 223
    Join date : 2012. Aug. 11.
    Age : 58

    IMAX-The Dream Is Alive

    Témanyitás  axiss on Csüt. Aug. 30, 2012 6:41 pm

    Megvalósult álom
    (The Dream Is Alive)

    színes, feliratos, amerikai dokumentumfilm, 1985

    Director: Graeme Ferguson
    Writer: Toni Myers
    Stars: Walter Cronkite, David Leestma and George Nelson

    [Only admins are allowed to see this image]

    A speciális IMAX mozik számára készült rendkívül látványos sorozat ezen részében mindazok álma megvalósulhat,
    akik valaha is szerettek volna eltölteni egy napot egy amerikai űrrepülőgépen, néhány száz kilométernyire a Földtől.
    Miközben az olasz csizma, Egyiptom és a Nílus vonala rajzolódik ki a szemünk előtt,
    az űrhajó legénysége bravúros ügyességgel fog be és javít meg egy meghibásodott műholdat.
    Végül egy történelmi esemény részesei lehetünk:
    az első amerikai nő által végrehajtott űrsétát tekinthetjük meg!


    [Only admins are allowed to see this image]

    [Only admins are allowed to see this image]



    köszönet a feltöltőnek, hectortroy engedélyével

    [Only admins are allowed to see this image]

    [Only admins are allowed to see this image]

    Info

    Complete name : IMAX-The.Dream.Is.Alive.HunSub.mkv
    Format : Matroska
    File size : 1.46 GiB
    Duration : 36mn 34s
    Overall bit rate : 5 705 Kbps
    Movie name : "Encoded_by_HDBRiSe"
    Encoded date : UTC 2011-04-21 12:48:22
    Writing application : mkvmerge v2.2.0 ('Turn It On Again') built on Mar 4 2008 13:20:25
    Writing library : libebml v0.7.7 + libmatroska v0.8.1
    Video #1
    ID : 1
    Format : AVC
    Format/Info : Advanced Video Codec
    Format profile : High@L4.1
    Format settings, CABAC : Yes
    Format settings, ReFrames : 4 frames
    Codec ID : V_MPEG4/ISO/AVC
    Duration : 36mn 34s
    Bit rate : 5 064 Kbps
    Width : 1 280 pixels
    Height : 720 pixels
    Display aspect ratio : 16:9
    Frame rate : 23.976 fps
    Color space : YUV
    Chroma subsampling : 4:2:0
    Bit depth : 8 bits
    Scan type : Progressive
    Bits/(Pixel*Frame) : 0.229
    Stream size : 1.26 GiB (87%)
    Title : "Encoded_by_HDBRiSe"
    Writing library : x264 core 67 r1162M f7bfcfa
    Audio #2
    ID : 2
    Format : AC-3
    Format/Info : Audio Coding 3
    Mode extension : CM (complete main)
    Codec ID : A_AC3
    Duration : 36mn 34s
    Bit rate mode : Constant
    Bit rate : 640 Kbps
    Channel(s) : 6 channels
    Channel positions : Front: L C R, Side: L R, LFE
    Sampling rate : 48.0 KHz
    Bit depth : 16 bits
    Compression mode : Lossy
    Stream size : 167 MiB (11%)
    Title : English AC3
    Language : English
    Text #3
    ID : 3
    Format : UTF-8
    Codec ID : S_TEXT/UTF8
    Codec ID/Info : UTF-8 Plain Text
    Language : Hungarian

      Pontos idő: Vas. Jún. 25, 2017 1:08 pm