Szólj hozzá a témához és letöltheted a tartalmat!

Prémium előfizetésel több szálon, várakozás nélküli letöltés, nagy sebességgel!


    IMAX - Roving Mars

    Share

    axiss
    Data Uploader
    Data Uploader

    Hozzászólások száma : 223
    Join date : 2012. Aug. 11.
    Age : 57

    IMAX - Roving Mars

    Témanyitás  axiss on Csüt. Aug. 30, 2012 6:48 pm

    Róverek a Marson
    (Roving Mars)

    Feliratos amerikai dokumentumfilm, 2006

    Director: George Butler
    Writers: George Butler, Robert Andrus
    Stars: Paul Newman, Steve Squyres and Rob Manning

    [Only admins are allowed to see this image]

    A titokzatos vörös bolygó, a Mars. Megihletett számtalan regényt,filmet sci-fi-t: de ezek álmok maradtak.
    Most, első alkalommal, tapasztalhatjuk meg a valóságban a Mars felszínét, amit szemével a két rettenthetetlen,
    halált megvető-felfedező - Spirit és az Opportunity a Mars Rovers - látott.
    A látványos óriásfilm Amerika szerte hatalmas tömegeket vonzott a mozikba. Most képernyőn láthatjuk a Roverek felfedező utját.
    A fenomenális képek, látványos táj, amely egyszerre félelmetes és csodálatos.
    Izgalmas dráma a küldetés alatt A két Rover a terepen talál választ, a folyamatosan visszatérő kérdésre....
    Van-e élet a Marson?


    [Only admins are allowed to see this image]

    [Only admins are allowed to see this image]



    köszönet a feltöltőnek, hectortroy engedélyével

    [Only admins are allowed to see this image]

    Info

    Complete name : IMAX-Roving.Mars.Hun.Sub.mkv
    Format : Matroska
    File size : 2.39 GiB
    Duration : 39mn 56s
    Overall bit rate : 8 559 Kbps
    Encoded date : UTC 2011-04-21 11:46:13
    Writing application : mkvmerge v2.2.0 ('Turn It On Again') built on Mar @4 2008 13:20:25
    Writing library : libebml v0.7.7 + libmatroska v0.8.1
    Video #1
    ID : 1
    Format : AVC
    Format/Info : Advanced Video Codec
    Format profile : High@L5.1
    Format settings, CABAC : Yes
    Format settings, ReFrames : 8 frames
    Codec ID : V_MPEG4/ISO/AVC
    Duration : 39mn 56s
    Bit rate : 7 918 Kbps
    Width : 1 280 pixels
    Height : 720 pixels
    Display aspect ratio : 16:9
    Frame rate : 23.976 fps
    Color space : YUV
    Chroma subsampling : 4:2:0
    Bit depth : 8 bits
    Scan type : Progressive
    Bits/(Pixel*Frame) : 0.358
    Stream size : 2.16 GiB (91%)
    Writing library : x264 core 55 svn-655
    Audio #2
    ID : 2
    Format : AC-3
    Format/Info : Audio Coding 3
    Mode extension : CM (complete main)
    Codec ID : A_AC3
    Duration : 39mn 56s
    Bit rate mode : Constant
    Bit rate : 640 Kbps
    Channel(s) : 6 channels
    Channel positions : Front: L C R, Side: L R, LFE
    Sampling rate : 48.0 KHz
    Bit depth : 16 bits
    Compression mode : Lossy
    Stream size : 183 MiB (7%)
    Language : English
    Text #3
    ID : 3
    Format : UTF-8
    Codec ID : S_TEXT/UTF8
    Codec ID/Info : UTF-8 Plain Text
    Language : Hungarian

      Pontos idő: Hétf. Jan. 16, 2017 6:20 pm