Szólj hozzá a témához és letöltheted a tartalmat!

Prémium előfizetésel több szálon, várakozás nélküli letöltés, nagy sebességgel!


    IMAX - Cosmic Voyage

    Share
    avatar
    axiss
    Data Uploader
    Data Uploader

    Hozzászólások száma : 223
    Join date : 2012. Aug. 11.
    Age : 58

    IMAX - Cosmic Voyage

    Témanyitás  axiss on Csüt. Aug. 30, 2012 6:57 pm

    Kozmikus utazás
    (Cosmic Voyage)

    feliratos, amerikai dokumentumfilm,1996

    Director: Bayley Silleck
    Writers: Michael Miner, Bayley Silleck
    Stars: Morgan Freeman

    [Only admins are allowed to see this image]

    A kozmikus utazás a földön kezdődik, amit szilárdan emberi perspektívában alapoztak,
    és feltesz egy lenyűgöző kérdést:
    Hol is állunk pontosan a Kozmoszban?
    Hol van a helyünk a kvark és kvazárok között térben és időben?
    Elindulunk Velencéből, ahol Galileo először demonstrálta a távcső használatát,
    majd 26 kapun felemelkedve eljutunk a naprendszerünkön és a Tejúton keresztül az észlelhető világegyetem külső éleire.
    Visszafelé haladva miközben visszatérünk a Földhöz, belépünk egy csepp vízbe.
    A film bemutat egy kozmikus száguldást, ahol nézőket szállítanak több millió éven keresztül,
    és bemutatja galaxisok összeütközését,
    a naprendszer-alakját és az élet kezdetét egy fiatal bolygón,
    A Földön...


    [Only admins are allowed to see this image]

    [Only admins are allowed to see this image]



    köszönet a feltöltőnek, hectortroy engedélyével

    [Only admins are allowed to see this image]

    [Only admins are allowed to see this image]

    Info

    Complete name : IMAX-Cosmic.Voyage.HunSub.mkv
    Format : Matroska
    File size : 1.46 GiB
    Duration : 36mn 24s
    Overall bit rate : 5 729 Kbps
    Encoded date : UTC 2011-04-21 19:32:06
    Writing application : mkvmerge v2.2.0 ('Turn It On Again') built on Mar 4 2008 13:20:25
    Writing library : libebml v0.7.7 + libmatroska v0.8.1
    Video #1
    ID : 1
    Format : AVC
    Format/Info : Advanced Video Codec
    Format profile : High@L3.1
    Format settings, CABAC : Yes
    Format settings, ReFrames : 5 frames
    Codec ID : V_MPEG4/ISO/AVC
    Duration : 36mn 24s
    Bit rate : 5 127 Kbps
    Width : 1 280 pixels
    Height : 720 pixels
    Display aspect ratio : 16:9
    Frame rate : 23.976 fps
    Color space : YUV
    Chroma subsampling : 4:2:0
    Bit depth : 8 bits
    Scan type : Progressive
    Bits/(Pixel*Frame) : 0.232
    Stream size : 1.27 GiB (87%)
    Writing library : x264 core 65 r999 cc51047
    Audio #2
    ID : 2
    Format : AC-3
    Format/Info : Audio Coding 3
    Mode extension : CM (complete main)
    Codec ID : A_AC3
    Duration : 36mn 24s
    Bit rate mode : Constant
    Bit rate : 640 Kbps
    Channel(s) : 6 channels
    Channel positions : Front: L C R, Side: L R, LFE
    Sampling rate : 48.0 KHz
    Bit depth : 16 bits
    Compression mode : Lossy
    Stream size : 167 MiB (11%)
    Language : English
    Text #3
    ID : 3
    Format : UTF-8
    Codec ID : S_TEXT/UTF8
    Codec ID/Info : UTF-8 Plain Text
    Language : English
    Text #4
    ID : 4
    Format : UTF-8
    Codec ID : S_TEXT/UTF8
    Codec ID/Info : UTF-8 Plain Text
    Language : Hungarian

    yeteee
    Töltögető
    Töltögető

    Hozzászólások száma : 12
    Join date : 2012. Sep. 23.

    Re: IMAX - Cosmic Voyage

    Témanyitás  yeteee on Szer. Szept. 03, 2014 7:43 pm

    Köszönöm

      Pontos idő: Hétf. Okt. 23, 2017 6:05 pm