Szólj hozzá a témához és letöltheted a tartalmat!

Prémium előfizetésel több szálon, várakozás nélküli letöltés, nagy sebességgel!


    IMAX - The Living Sea

    Share
    avatar
    axiss
    Data Uploader
    Data Uploader

    Hozzászólások száma : 223
    Join date : 2012. Aug. 11.
    Age : 58

    IMAX - The Living Sea

    Témanyitás  axiss on Csüt. Aug. 30, 2012 7:04 pm

    Az élő tenger
    (The Living Sea)

    feliratos,amerikai,természetfilm,1995

    Director: Greg MacGillivray
    Writers: Roger Holzberg, Tim Cahill
    Stars: Steven K. Katona, Meryl Streep and Judith Connor

    [Only admins are allowed to see this image]

    Utunk ,most Palau, Hawaii, California, Oregon, Alaska partjai közelében található óceánok,
    és tengerek felé tart.Megvizsgáljuk Nova Scotia és a Red Sea élővilágát,és éghajlatát.
    A film bejárja a tengerek világát amely egyedülálló a műfajában.


    [Only admins are allowed to see this image]

    [Only admins are allowed to see this image]



    [Only admins are allowed to see this image]

    Info

    Complete name : IMAX-Living.Sea.HunSub.mkv
    Format : Matroska
    File size : 2.19 GiB
    Duration : 39mn 35s
    Overall bit rate : 7 903 Kbps
    Movie name : "Encoded_by_HDBRiSe"
    Encoded date : UTC 2011-04-21 12:52:36
    Writing application : mkvmerge v2.2.0 ('Turn It On Again') built on Mar 4 2008 13:20:25
    Writing library : libebml v0.7.7 + libmatroska v0.8.1
    Video #1
    ID : 1
    Format : AVC
    Format/Info : Advanced Video Codec
    Format profile : High@L4.1
    Format settings, CABAC : Yes
    Format settings, ReFrames : 5 frames
    Codec ID : V_MPEG4/ISO/AVC
    Duration : 39mn 35s
    Bit rate : 6 390 Kbps
    Width : 1 280 pixels
    Height : 720 pixels
    Display aspect ratio : 16:9
    Frame rate : 23.976 fps
    Color space : YUV
    Chroma subsampling : 4:2:0
    Bit depth : 8 bits
    Scan type : Progressive
    Bits/(Pixel*Frame) : 0.289
    Stream size : 1.72 GiB (79%)
    Writing library : x264 core 83 r1400 20fa784
    Language : English
    Audio #2
    ID : 2
    Format : DTS
    Format/Info : Digital Theater Systems
    Codec ID : A_DTS
    Duration : 39mn 35s
    Bit rate mode : Constant
    Bit rate : 1 510 Kbps
    Channel(s) : 6 channels
    Channel positions : Front: L C R, Side: L R, LFE
    Sampling rate : 48.0 KHz
    Bit depth : 16 bits
    Compression mode : Lossy
    Stream size : 427 MiB (19%)
    Language : English
    Text #3
    ID : 3
    Format : UTF-8
    Codec ID : S_TEXT/UTF8
    Codec ID/Info : UTF-8 Plain Text
    Language : Hungarian

      Pontos idő: Hétf. Jún. 26, 2017 1:04 am