Szólj hozzá a témához és letöltheted a tartalmat!

Prémium előfizetésel több szálon, várakozás nélküli letöltés, nagy sebességgel!


    IMAX - Australia Land Beyond Time

    Share

    axiss
    Data Uploader
    Data Uploader

    Hozzászólások száma : 223
    Join date : 2012. Aug. 11.
    Age : 57

    IMAX - Australia Land Beyond Time

    Témanyitás  axiss on Szer. Szept. 05, 2012 5:00 am

    Ausztrália: Ahol megáll az idő

    Szinkronizált amerikai természetfilm, 2002

    Director: David Flatman
    Writers: David Flatman, Les Murray
    Stars: Alex Scott

    [Only admins are allowed to see this image]

    Director: David Flatman

    Writers: David Flatman, Les Murray

    Stars: Alex Scott

    Ausztrália élővilága egyszerre egzotikus és szürreális, az élet létrejötte óta a
    természet itt különösen drámai helyzeteket produkált, új és új kihívások elé állítva a földrész lakóit...
    A világ legkisebb kontinensének - vagy a legnagyobb szigetének - különlegességét
    a többi földrésztől való teljes elszigeteltsége adja.
    Ez a végletek földje: belsejét több tízezer négyzetkilóméternyi vörös homoksivatag,
    az első látásra lakhatatlan és halottnak tűnő "Outback" alkotja, míg parti övezetein élettől nyüzsgő esőerdők terülnek el.
    Filmünk végigkíséri az élet születését,
    fejlődését és újjászületését ezen a misztikus tájon,
    Ausztráliában, a sehol máshol nem található, ősi és titokzatos élőlények földjén.

    [Only admins are allowed to see this image]



    "köszönet a feltöltőnek, hectortroy engedélyével"

    Jelszó nincs

    [Only admins are allowed to see this image]

    [Only admins are allowed to see this image]

    Info

    Complete name : IMAX-Australia.Land.Beyond.Time.Hun.mkv
    Format : Matroska
    File size : 2.01 GiB
    Duration : 40mn 19s
    Overall bit rate : 7 135 Kbps
    Writing application : Lavf51.12.1
    Writing library : Lavf51.12.1
    Video #1
    ID : 1
    Format : AVC
    Format/Info : Advanced Video Codec
    Format profile : Baseline@L1.3
    Format settings, CABAC : No
    Format settings, ReFrames : 1 frame
    Format settings, GOP : M=1, N=12
    Codec ID : V_MPEG4/ISO/AVC
    Duration : 40mn 19s
    Bit rate : 6 865 Kbps
    Width : 1 280 pixels
    Height : 720 pixels
    Display aspect ratio : 16:9
    Frame rate : 50.000 fps
    Color space : YUV
    Chroma subsampling : 4:2:0
    Bit depth : 8 bits
    Scan type : Progressive
    Bits/(Pixel*Frame) : 0.149
    Stream size : 1.93 GiB (96%)
    Language : English
    Audio #2
    ID : 2
    Format : MPEG Audio
    Format version : Version 1
    Format profile : Layer 3
    Mode : Joint stereo
    Mode extension : MS Stereo
    Codec ID : A_MPEG/L3
    Codec ID/Hint : MP3
    Duration : 40mn 19s
    Bit rate mode : Constant
    Bit rate : 128 Kbps
    Channel(s) : 2 channels
    Sampling rate : 44.1 KHz
    Compression mode : Lossy
    Stream size : 36.9 MiB (2%)
    Writing library : LAME3.97
    Language : Hungarian

      Pontos idő: Hétf. Jan. 16, 2017 8:18 pm