Szólj hozzá a témához és letöltheted a tartalmat!

Prémium előfizetésel több szálon, várakozás nélküli letöltés, nagy sebességgel!


    IMAX - Coral Reef Adventure

    Share

    axiss
    Data Uploader
    Data Uploader

    Hozzászólások száma : 223
    Join date : 2012. Aug. 11.
    Age : 57

    IMAX - Coral Reef Adventure

    Témanyitás  axiss on Szer. Szept. 05, 2012 5:02 am

    Kaland a Korallzátonyon

    feliratos,angol,amerikai,természetfilm, 2003

    Director: Greg MacGillivray
    Writers: Jack Stephens (narration), Osha Gray Davidson
    Stars: Liam Neeson, Howard Hall and Michele Hall

    [Only admins are allowed to see this image]

    Vegyünk részt egy Csendes-óceán déli részén egy látványos IMAX kalandon.
    A felfedezők Howard és Michele Hall szerelem az óceán szlogenje tettekre sarkallta a világot..
    Jean-Michael Cousteau, mélytengeri tudós és Richard Pyle és Fidzsi-szigeteki búvár Rusi Vulakoro,
    közösen összefogtak,hogy megmutassák a káprázatos víz alatti világot.
    A korallzátonyoknál, nincs varázslatosabb hely Földön.
    Ezen a trópusi kiránduláson betekintést nyerünk a Csendes-óceán déli részén meglepően szép zátonyok,
    és korallok világába,de oda is,betekinthetünk ahol fájdalmas,
    tragikus,és helyrehozhatatlan a veszteség az emberiség számára.

    [Only admins are allowed to see this image]



    "köszönet a feltöltőnek, hectortroy engedélyével"

    Jelszó nincs

    [Only admins are allowed to see this image]

    [Only admins are allowed to see this image]

    [Only admins are allowed to see this image]

    Info

    Complete name : IMAX-Coral Reef Adventure.HunSub.mkv
    Format : Matroska
    File size : 2.19 GiB
    Duration : 46mn 19s
    Overall bit rate : 6 760 Kbps
    Encoded date : UTC 2011-04-21 06:03:33
    Writing application : mkvmerge v2.2.0 ('Turn It On Again') built on Mar 4 2008 13:20:25
    Writing library : libebml v0.7.7 + libmatroska v0.8.1
    Video #1
    ID : 1
    Format : AVC
    Format/Info : Advanced Video Codec
    Format profile : High@L4.1
    Format settings, CABAC : Yes
    Format settings, ReFrames : 5 frames
    Codec ID : V_MPEG4/ISO/AVC
    Duration : 46mn 19s
    Bit rate : 5 245 Kbps
    Width : 1 280 pixels
    Height : 720 pixels
    Display aspect ratio : 16:9
    Frame rate : 23.976 fps
    Color space : YUV
    Chroma subsampling : 4:2:0
    Bit depth : 8 bits
    Scan type : Progressive
    Bits/(Pixel*Frame) : 0.237
    Stream size : 1.66 GiB (76%)
    Writing library : x264 core 107 r1745 4785e8e
    Language : English
    Audio #2
    ID : 2
    Format : DTS
    Format/Info : Digital Theater Systems
    Codec ID : A_DTS
    Duration : 46mn 19s
    Bit rate mode : Constant
    Bit rate : 1 510 Kbps
    Channel(s) : 6 channels
    Channel positions : Front: L C R, Side: L R, LFE
    Sampling rate : 48.0 KHz
    Bit depth : 24 bits
    Compression mode : Lossy
    Stream size : 500 MiB (22%)
    Language : English
    Text #3
    ID : 3
    Format : UTF-8
    Codec ID : S_TEXT/UTF8
    Codec ID/Info : UTF-8 Plain Text
    Language : Hungarian

    Dr550504
    Leskelődő
    Leskelődő

    Hozzászólások száma : 7
    Join date : 2012. Jul. 09.

    Re: IMAX - Coral Reef Adventure

    Témanyitás  Dr550504 on Vas. Dec. 23, 2012 8:04 pm

    kösz

      Pontos idő: Hétf. Jan. 16, 2017 6:19 pm