Szólj hozzá a témához és letöltheted a tartalmat!

Prémium előfizetésel több szálon, várakozás nélküli letöltés, nagy sebességgel!


    IMAX - Bears

    Share
    avatar
    axiss
    Data Uploader
    Data Uploader

    Hozzászólások száma : 223
    Join date : 2012. Aug. 11.
    Age : 58

    IMAX - Bears

    Témanyitás  axiss on Szer. Szept. 05, 2012 5:07 am

    Medvék

    Szinkronizált amerikai természetfilm, 2004

    Director: David Lickley

    Writer: Alex Low

    Stars: Tyrone Benskin

    [Only admins are allowed to see this image]

    Az embert az ősidők óta szoros kapcsolat fűzi ezekhez a nemes vadakhoz.
    Méretük és félelmet keltő megjelenésük miatt hajlamosak vagyunk a rettegésre,
    miközben az ősi civilizációktól napjainkig a legmélyebb vallásos tisztelettel
    és áhítattal tekintünk rájuk.
    A mítoszokkal teli múlt megidézése és a csupa bizonytalanságot rejtő jövő víziója mellett
    a film remek képekkel mutatja be ezeknek a néha elbűvölő és bájos, néha erőszakos
    és kegyetlen mindenevőknek az emberi civilizáció által mind jobban fenyegetett életét.
    A városi ember számára elképzelhetetlen közelségbe férkőzhetünk a világ legnagyobb szárazföldi ragadozójához,
    az északi tundrák királyaihoz, a jegesmedvékhez. Láthatjuk a montana-i feketemedvéket,
    amint kölykeiket nevelik, és persze megismerkedhetünk a legendás grizzlyvel, az észak-amerikai őslakosok totemállatával.
    A Földünkön ma élő medvék élete azonban — amellett, hogy megható és játékos pillanatokban is bővelkedik
    nagyrészt komoly és nehéz küzdelem a túlélésért, minden fajta számára más-más kihívással.
    A filmet megnézve jobban megismerhetjük ezeket a csodálatos állatokat, és talán megérthetjük azt is,
    miért olyan fontos a megóvásuk, nemcsak a természet, de az emberi faj számára is.

    [Only admins are allowed to see this image]



    "köszönet a feltöltőnek, hectortroy engedélyével"

    Jelszó nincs

    [Only admins are allowed to see this image]

    [Only admins are allowed to see this image]

    Info

    Complete name : IMAX-Bears.HunDub.mkv
    Format : Matroska
    File size : 1.95 GiB
    Duration : 39mn 9s
    Overall bit rate : 7 120 Kbps
    Writing application : Lavf51.12.1
    Writing library : Lavf51.12.1
    Video #1
    ID : 1
    Format : AVC
    Format/Info : Advanced Video Codec
    Format profile : Baseline@L1.3
    Format settings, CABAC : No
    Format settings, ReFrames : 1 frame
    Format settings, GOP : M=1, N=12
    Codec ID : V_MPEG4/ISO/AVC
    Duration : 39mn 9s
    Bit rate : 6 850 Kbps
    Width : 1 280 pixels
    Height : 720 pixels
    Display aspect ratio : 16:9
    Frame rate : 23.976 fps
    Color space : YUV
    Chroma subsampling : 4:2:0
    Bit depth : 8 bits
    Scan type : Progressive
    Bits/(Pixel*Frame) : 0.310
    Stream size : 1.87 GiB (96%)
    Language : English
    Audio #2
    ID : 2
    Format : MPEG Audio
    Format version : Version 1
    Format profile : Layer 3
    Mode : Joint stereo
    Mode extension : MS Stereo
    Codec ID : A_MPEG/L3
    Codec ID/Hint : MP3
    Duration : 39mn 9s
    Bit rate mode : Constant
    Bit rate : 128 Kbps
    Channel(s) : 2 channels
    Sampling rate : 44.1 KHz
    Compression mode : Lossy
    Stream size : 35.8 MiB (2%)
    Language : Hungarian

    posi
    Fanatikus
    Fanatikus

    Hozzászólások száma : 27
    Join date : 2012. May. 27.

    Re: IMAX - Bears

    Témanyitás  posi on Vas. Szept. 23, 2012 3:59 pm

    Köszönöm.

      Pontos idő: Vas. Aug. 20, 2017 10:45 am