Szólj hozzá a témához és letöltheted a tartalmat!

Prémium előfizetésel több szálon, várakozás nélküli letöltés, nagy sebességgel!


    IMAX - Mystery of the Maya

    Share

    axiss
    Data Uploader
    Data Uploader

    Hozzászólások száma : 223
    Join date : 2012. Aug. 11.
    Age : 57

    IMAX - Mystery of the Maya

    Témanyitás  axiss on Szer. Szept. 05, 2012 5:09 am

    A titokzatos mayák

    HDTV.720p.

    Feliratos amerikai természet-dokumentumfilm

    Directors: Barrie Howells, Roberto Rochín

    Writers: Barrie Howells (narration written by), Óscar Montero

    Stars: Nicolas Alonso, Juan Carlos Colombo and Susan Glover

    [Only admins are allowed to see this image]

    Bent a trópusi dzsungelben a mai Mexico és Guatemala területén,
    mélyen benyúlva a Yucatan- félszigetre terül el az egykori Maja birodalom.
    Ma is láthatók még a jellegzetes formájú piramisok, templomok és lakóházak némelyike.
    Miközben Európa még a "sötét középkor" kábulatában élt,
    ez a fejlett civilizáció az óceán túlpartján a kontinensen elsőként már fejlett írást használt,
    és meghökkentő eredményeket ért el a matematika, a csillagászat és az időmérés területein.
    Mai ésszel szinte felfoghatatlan,
    hogyan tudták óriási városaikat és hatalmas építményeiket létrehozni,
    hiszen fémeket nem használtak, és a kereket sem ismerték,
    de még csak teherhordó állatokkal sem rendelkeztek!
    Ennek a csodálatos emberi kultúrának a felderítésére,
    tudományuk és történetük feltárására tesz kísérletet ez a film,
    bejárva Palenque, Tikal, Tulum, Chich'en Itz'a, Copan és Uxmal szent városainak maradványait.

    [Only admins are allowed to see this image]

    Letöltés:


    "köszönet a feltöltőnek, hectortroy engedélyével"

    Jelszó nincs

    [Only admins are allowed to see this image]

    [Only admins are allowed to see this image]

    Info

    Complete name : IMAX-Mystery.of.the.Maya.HunSub
    Format : Matroska
    File size : 1.64 GiB
    Duration : 38mn 2s
    Overall bit rate : 6 160 Kbps
    Encoded date : UTC 2011-07-02 20:21:21
    Writing application : mkvmerge v2.5.1 ('He Wasn't There') built on Feb 22 2009 18:19:47
    Writing library : libebml v0.7.7 + libmatroska v0.8.1
    Video #1
    ID : 1
    Format : AVC
    Format/Info : Advanced Video Codec
    Format profile : Baseline@L1.3
    Format settings, CABAC : No
    Format settings, ReFrames : 1 frame
    Format settings, GOP : M=1, N=12
    Codec ID : V_MPEG4/ISO/AVC
    Duration : 38mn 2s
    Bit rate : 5 909 Kbps
    Width : 1 280 pixels
    Height : 720 pixels
    Display aspect ratio : 16:9
    Frame rate : 23.976 fps
    Color space : YUV
    Chroma subsampling : 4:2:0
    Bit depth : 8 bits
    Scan type : Progressive
    Bits/(Pixel*Frame) : 0.267
    Stream size : 1.57 GiB (96%)
    Audio #2
    ID : 2
    Format : MPEG Audio
    Format version : Version 1
    Format profile : Layer 3
    Mode : Joint stereo
    Mode extension : MS Stereo
    Codec ID : A_MPEG/L3
    Codec ID/Hint : MP3
    Duration : 38mn 2s
    Bit rate mode : Constant
    Bit rate : 128 Kbps
    Channel(s) : 2 channels
    Sampling rate : 44.1 KHz
    Compression mode : Lossy
    Stream size : 34.8 MiB (2%)
    Writing library : LAME3.97
    Text #3
    ID : 3
    Format : UTF-8
    Codec ID : S_TEXT/UTF8
    Codec ID/Info : UTF-8 Plain Text
    Language : Hungarian

      Pontos idő: Hétf. Jan. 16, 2017 8:19 pm