Szólj hozzá a témához és letöltheted a tartalmat!

Prémium előfizetésel több szálon, várakozás nélküli letöltés, nagy sebességgel!


    IMAX - Solar Max

    Share
    avatar
    axiss
    Data Uploader
    Data Uploader

    Hozzászólások száma : 223
    Join date : 2012. Aug. 11.
    Age : 58

    IMAX - Solar Max

    Témanyitás  axiss on Szer. Szept. 05, 2012 5:10 am

    Napkitörés

    Feliratos amerikai természet-dokumentumfilm

    Director: John Weiley

    Writer: John Weiley

    Stars: Alex Scott

    [Only admins are allowed to see this image]

    Napunk pólusai minden 11. évben felcserélődnek egy minden képzeletet felülmúlóan heves folyamat során.
    E viharos tevékenység csúcsa a "napfolt-maximum". A Napkitörés - a világ "legforróbb filmje"
    egy megdöbbentő utazásra hív, hogy megismerhessük ezt az elképesztő tömegű és energiájú, hatalmas és közeli csillagot.
    A különleges út során, térben és időben kalandozva megtapasztalhatjuk a Napból áradó zord erőt csakúgy, mint elmondhatatlan szépségét.
    Láthatunk teljes napfogyatkozást és megfigyelhetjük az Északi Fény jelenségét a Földről és az űrből is.
    A filmben szereplő látványos képek nem trükkök, hanem nagyon is valódi felvételek,
    köztük néhány, korábban máshol nem bemutatott fotó és filmrészlet, melyeket a NASA SOHO nevű szatellitje készített,
    és amelyhez hasonlóakat emberi szem ezelőtt soha nem láthatott...

    [Only admins are allowed to see this image]


    Letöltés:


    "köszönet a feltöltőnek, hectortroy engedélyével"

    Jelszó nincs

    [Only admins are allowed to see this image]

    [Only admins are allowed to see this image]

    Info

    Complete name : IMAX-Solarmax.HunSub
    Format : Matroska
    File size : 2.18 GiB
    Duration : 38mn 38s
    Overall bit rate : 8 092 Kbps
    Encoded date : UTC 2011-04-20 22:43:58
    Writing application : mkvmerge v2.2.0 ('Turn It On Again') built on Mar 4 2008 13:20:25
    Writing library : libebml v0.7.7 + libmatroska v0.8.1
    Video #1
    ID : 1
    Format : AVC
    Format/Info : Advanced Video Codec
    Format profile : High@L4.1
    Format settings, CABAC : Yes
    Format settings, ReFrames : 5 frames
    Codec ID : V_MPEG4/ISO/AVC
    Duration : 38mn 38s
    Bit rate : 6 584 Kbps
    Width : 1 280 pixels
    Height : 720 pixels
    Display aspect ratio : 16:9
    Frame rate : 23.976 fps
    Color space : YUV
    Chroma subsampling : 4:2:0
    Bit depth : 8 bits
    Scan type : Progressive
    Bits/(Pixel*Frame) : 0.298
    Stream size : 1.73 GiB (79%)
    Language : English
    Audio #2
    ID : 2
    Format : DTS
    Format/Info : Digital Theater Systems
    Codec ID : A_DTS
    Duration : 38mn 38s
    Bit rate mode : Constant
    Bit rate : 1 510 Kbps
    Channel(s) : 6 channels
    Channel positions : Front: L C R, Side: L R, LFE
    Sampling rate : 48.0 KHz
    Bit depth : 16 bits
    Compression mode : Lossy
    Stream size : 417 MiB (19%)
    Language : English
    Text #3
    ID : 3
    Format : UTF-8
    Codec ID : S_TEXT/UTF8
    Codec ID/Info : UTF-8 Plain Text
    Language : Hungarian
    Text #4
    ID : 4
    Format : UTF-8
    Codec ID : S_TEXT/UTF8
    Codec ID/Info : UTF-8 Plain Text
    Language : English

    Garázs
    Leskelődő
    Leskelődő

    Hozzászólások száma : 1
    Join date : 2013. Jan. 23.

    Re: IMAX - Solar Max

    Témanyitás  Garázs on Szer. Jan. 23, 2013 4:25 pm

    Nagyon szeretném letölteni a IMAX Solarmax 2000-t. Remélem sikerül. Minden jót kívánok a Fórum tagjainak. Üdv.: Garázs

      Pontos idő: Szomb. Okt. 21, 2017 2:03 am