Szólj hozzá a témához és letöltheted a tartalmat!

Prémium előfizetésel több szálon, várakozás nélküli letöltés, nagy sebességgel!


    IMAX-Amazon

    Share
    avatar
    axiss
    Data Uploader
    Data Uploader

    Hozzászólások száma : 223
    Join date : 2012. Aug. 11.
    Age : 58

    IMAX-Amazon

    Témanyitás  axiss on Szer. Szept. 05, 2012 5:27 am

    Amazonasz

    Feliratos amerikai természet-dokumentumfilm, 1997

    [Only admins are allowed to see this image]

    Director: Kieth Merrill

    Writers: Kieth Merrill , Loren McIntyre

    Stars: Linda Hunt, Jesse Corti and Mark Plotkin

    Az Amazonas esőerdeje egy hétmillió négyzetkilométert felölelő, végeláthatatlan dzsungel,
    aminek számtalan dédelgetett élőlénye tartja egyensúlyban bolygónk ökoszisztémáját.
    Rejtőznek még benne fajok, amik felfedezésre várnak, ugyanakkor sokuknak
    a fennmaradását veszélyezteti a modern világ terjeszkedése és az erdőpusztítás.

    [Only admins are allowed to see this image]


    Letöltés:



    "köszönet a feltöltőnek, hectortroy engedélyével"

    Jelszó nincs

    [Only admins are allowed to see this image]

    [Only admins are allowed to see this image]

    Info:

    Complete name : IMAX.Amazon.HunSub.mkv
    Format : Matroska
    File size : 2.19 GiB
    Duration : 38mn 29s
    Overall bit rate : 8 132 Kbps
    Movie name : Encoded_by HDBRiSe_for_HD-BiTs.ro
    Encoded date : UTC 2011-04-21 18:20:07
    Writing application : mkvmerge v2.2.0 ('Turn It On Again') built on Mar 4 2008 13:20:25
    Writing library : libebml v0.7.7 + libmatroska v0.8.1
    Video #1
    ID : 1
    Format : AVC
    Format/Info : Advanced Video Codec
    Format profile : High@L4.1
    Format settings, CABAC : Yes
    Format settings, ReFrames : 4 frames
    Codec ID : V_MPEG4/ISO/AVC
    Duration : 38mn 29s
    Bit rate : 6 620 Kbps
    Width : 1 280 pixels
    Height : 720 pixels
    Display aspect ratio : 16:9
    Frame rate : 23.976 fps
    Color space : YUV
    Chroma subsampling : 4:2:0
    Bit depth : 8 bits
    Scan type : Progressive
    Bits/(Pixel*Frame) : 0.300
    Stream size : 1.74 GiB (79%)
    Title : IMAX.Amazon.1997.Blu-ray.720p.HDBRiSe
    Language : English
    Audio #2
    ID : 2
    Format : DTS
    Format/Info : Digital Theater Systems
    Codec ID : A_DTS
    Duration : 38mn 29s
    Bit rate mode : Constant
    Bit rate : 1 510 Kbps
    Channel(s) : 6 channels
    Channel positions : Front: L C R, Side: L R, LFE
    Sampling rate : 48.0 KHz
    Bit depth : 16 bits
    Compression mode : Lossy
    Stream size : 416 MiB (19%)
    Title : IMAX.Amazon.1997.Blu-ray.DTS.HDBRiSe
    Language : English
    Text #3
    ID : 3
    Format : UTF-8
    Codec ID : S_TEXT/UTF8
    Codec ID/Info : UTF-8 Plain Text
    Language : Hungarian

    peppe963
    Fanatikus
    Fanatikus

    Hozzászólások száma : 20
    Join date : 2012. Oct. 08.

    Re: IMAX-Amazon

    Témanyitás  peppe963 on Hétf. Okt. 08, 2012 6:56 pm

    thx

      Pontos idő: Szer. Máj. 24, 2017 5:22 am