Szólj hozzá a témához és letöltheted a tartalmat!

Prémium előfizetésel több szálon, várakozás nélküli letöltés, nagy sebességgel!


    IMAX-Chronos

    Share
    avatar
    axiss
    Data Uploader
    Data Uploader

    Hozzászólások száma : 223
    Join date : 2012. Aug. 11.
    Age : 58

    IMAX-Chronos

    Témanyitás  axiss on Szer. Szept. 05, 2012 5:35 am

    Narrátor nélküli

    HDTV

    Director: Ron Fricke

    Writers: Constantine Nicholas (scenario), Genevieve Nicholas(scenario)

    [Only admins are allowed to see this image]

    Chronos: Uranosz és Gaia gyermeke, a tizenkét titán legfiatalabbja.

    Egy fantasztikus utazás,a nyugati típusú civilizáció kialakulása,és hatalmas monumentálisalkotásai felett.
    Szó szerint felülnézetből átsuhanunk minden lényeges és csodálatos alkotás felett amely feledhetetlen élményt kínál.
    Nincs szöveg,
    nincs narrátor,
    csak a csodálatos tájak és épületek,az egyiptomi,hellén,római remekek,és a francia gótikus építészet remek alkotásai.
    Átrepülünk a Grand kanyonon, Colorádó folyó medrén,Stonehenge,a gigantikus monolitok közt,
    az egyiptomi piramisok és a görög csodák felett.
    A bámulatos Szent Péter bazilika,de előtte a Notre-Dame támasztó pillérjeit csodálhatjuk meg.
    Egy rendkívüli utazás,a civilizáció csodás alkotásai közt,nagyszerű zenével és gyönyörű képpel.


    [Only admins are allowed to see this image]

    Letöltés:

    "köszönet a feltöltőnek, hectortroy engedélyével"

    Jelszó nincs

    [Only admins are allowed to see this image]

    [Only admins are allowed to see this image]

    Info

    Complete name : IMAX-Chronos.HDTV.720p.Eng.mkv
    Format : Matroska
    File size : 2.06 GiB
    Duration : 41mn 33s
    Overall bit rate : 7 108 Kbps
    Writing application : Lavf51.12.1
    Writing library : Lavf51.12.1
    Video #1
    ID : 1
    Format : AVC
    Format/Info : Advanced Video Codec
    Format profile : Baseline@L1.3
    Format settings, CABAC : No
    Format settings, ReFrames : 1 frame
    Format settings, GOP : M=1, N=12
    Codec ID : V_MPEG4/ISO/AVC
    Duration : 41mn 33s
    Bit rate : 6 774 Kbps
    Width : 1 280 pixels
    Height : 720 pixels
    Display aspect ratio : 16:9
    Frame rate : 23.976 fps
    Color space : YUV
    Chroma subsampling : 4:2:0
    Bit depth : 8 bits
    Scan type : Progressive
    Bits/(Pixel*Frame) : 0.307
    Stream size : 1.97 GiB (95%)
    Language : English
    Audio #2
    ID : 2
    Format : MPEG Audio
    Format version : Version 1
    Format profile : Layer 3
    Mode : Joint stereo
    Codec ID : A_MPEG/L3
    Codec ID/Hint : MP3
    Duration : 41mn 33s
    Bit rate mode : Constant
    Bit rate : 192 Kbps
    Channel(s) : 2 channels
    Sampling rate : 44.1 KHz
    Compression mode : Lossy
    Stream size : 57.1 MiB (3%)
    Language : English[/b]

      Pontos idő: Csüt. Jún. 22, 2017 5:19 pm