Szólj hozzá a témához és letöltheted a tartalmat!

Prémium előfizetésel több szálon, várakozás nélküli letöltés, nagy sebességgel!


    IMAX-Dolphins

    Share
    avatar
    axiss
    Data Uploader
    Data Uploader

    Hozzászólások száma : 223
    Join date : 2012. Aug. 11.
    Age : 58

    IMAX-Dolphins

    Témanyitás  axiss on Szer. Szept. 05, 2012 5:38 am

    Delfinek

    Feliratos amerikai természet-dokumentumfilm

    Director: Greg MacGillivray

    Writers: Tim Cahill, Stephen Judson

    Stars: Pierce Brosnan, Alejandro Acevedo-Gutiérrez and Dean Bernal

    [Only admins are allowed to see this image]

    Hihetetlen eszük, és hatalmas szívük teszik őket az állatvilág egyik gyöngyszemévé.
    Betekintést nyerhetünk az életükbe, környezetükbe, és hozzánk, emberekhez fűződő viszonyukba.
    Rendkivüli intelligenciájuk ámulatba ejtő.
    Sok számunkra érthetetlen viselkedésforma még kutatásra vár.
    Tudnak szeretni,tudnak elesettek.és szomoruak lenni.
    Olyan tulajdonságok,melyek kiemelik őket az állatvilágból.
    Csodaszép felvétel amikor a delfin kiemelkedik a csónak mellett és az ott utazó kutyát megszemléli,majd az orrát hozzá érinti.
    Kiemelkedő darab,az állatvilág szerelmeseinek nem kötelező de nagyon nézhető és szerethető film.

    [Only admins are allowed to see this image]

    Letöltés:

    "köszönet a feltöltőnek, hectortroy engedélyével"

    Jelszó nincs

    [Only admins are allowed to see this image]

    [Only admins are allowed to see this image]

    Info

    Complete name : IMAX-Dolphins.720p.Eng.HunSub.mkv
    Format : Matroska
    File size : 2.18 GiB
    Duration : 41mn 0s
    Overall bit rate : 7 626 Kbps
    Encoded date : UTC 2011-04-25 18:19:08
    Writing application : mkvmerge v2.2.0 ('Turn It On Again') built on Mar 4 2008 13:20:25
    Writing library : libebml v0.7.7 + libmatroska v0.8.1
    Video #1
    ID : 1
    Format : AVC
    Format/Info : Advanced Video Codec
    Format profile : High@L4.1
    Format settings, CABAC : Yes
    Format settings, ReFrames : 5 frames
    Codec ID : V_MPEG4/ISO/AVC
    Duration : 41mn 0s
    Bit rate : 6 114 Kbps
    Width : 1 280 pixels
    Height : 720 pixels
    Display aspect ratio : 16:9
    Frame rate : 23.976 fps
    Color space : YUV
    Chroma subsampling : 4:2:0
    Bit depth : 8 bits
    Scan type : Progressive
    Bits/(Pixel*Frame) : 0.277
    Stream size : 1.71 GiB (78%)
    Writing library : x264 core 94 r1563 fbcc1ec
    Language : English
    Audio #2
    ID : 2
    Format : DTS
    Format/Info : Digital Theater Systems
    Codec ID : A_DTS
    Duration : 41mn 0s
    Bit rate mode : Constant
    Bit rate : 1 510 Kbps
    Channel(s) : 6 channels
    Channel positions : Front: L C R, Side: L R, LFE
    Sampling rate : 48.0 KHz
    Bit depth : 24 bits
    Compression mode : Lossy
    Stream size : 443 MiB (20%)
    Language : English
    Text #3
    ID : 3
    Format : UTF-8
    Codec ID : S_TEXT/UTF8
    Codec ID/Info : UTF-8 Plain Text
    Language : Hungarian

    doresz2
    Data - Fájlmegosztó
    Data - Fájlmegosztó

    Hozzászólások száma : 119
    Join date : 2012. Mar. 28.

    Re: IMAX-Dolphins

    Témanyitás  doresz2 on Szer. Szept. 05, 2012 8:31 pm

    Köszönöm!

    posi
    Fanatikus
    Fanatikus

    Hozzászólások száma : 27
    Join date : 2012. May. 27.

    Re: IMAX-Dolphins

    Témanyitás  posi on Vas. Szept. 23, 2012 2:55 pm

    Köszönöm.

    peppe963
    Fanatikus
    Fanatikus

    Hozzászólások száma : 20
    Join date : 2012. Oct. 08.

    Re: IMAX-Dolphins

    Témanyitás  peppe963 on Hétf. Okt. 08, 2012 6:19 pm

    thx

    SeaHawk
    Töltögető
    Töltögető

    Hozzászólások száma : 15
    Join date : 2013. Jun. 08.

    Re: IMAX-Dolphins

    Témanyitás  SeaHawk on Pént. Aug. 16, 2013 7:52 pm

    köszönöm!

    Sponsored content

    Re: IMAX-Dolphins

    Témanyitás  Sponsored content


      Pontos idő: Kedd. Jún. 27, 2017 2:48 pm