Szólj hozzá a témához és letöltheted a tartalmat!

Prémium előfizetésel több szálon, várakozás nélküli letöltés, nagy sebességgel!


    IMAX - Tropical Rainforest

    Share
    avatar
    axiss
    Data Uploader
    Data Uploader

    Hozzászólások száma : 223
    Join date : 2012. Aug. 11.
    Age : 58

    IMAX - Tropical Rainforest

    Témanyitás  axiss on Kedd. Szept. 11, 2012 5:11 pm

    Trópusi esőerdő

    Feliratos amerikai természet-dokumentumfilm

    HDTV

    Director: Ben Shedd

    Writer: Simon Campbell-Jones

    Stars: Geoffrey Holder

    [Only admins are allowed to see this image]

    Tisztelgés az esőerdők nagysága előtt
    A világszerte milliók által látott film napjaink egyik legfontosabb környezetvédelmi
    problémája kapcsán egy 400 millió évet átfogó utazásra viszi a nézőt.
    Hihetetlen képi és hanghatások segítségével mutatja be a Föld tüdejének nevezett trópusi esőerdők kialakulását,
    szépségét és sokszínűségét, az ott élő több százezer madár és rovarfaj mindennapi életét.
    Az esőerdők mélye - hasonlóan az óceánok örök sötétségbe burkolódzó világához,
    vagy éppen az Antarktisz jégsivatagához - egészen a legutóbbi évtizedekig a Föld fehér foltjaihoz tartozott.
    Felfedezésük azonban megkezdődött, rögtön azután, hogy a tudomány felismerte jelentőségüket a Föld ökoszisztémájában.
    A filmben láthatjuk a kutatók sokszor elképesztően kockázatos kísérleteit,
    hogy közel férkőzzenek a talajtól sokszor harminc-negyven méterre, az esőerdők lombkoronájában nyüzsgő madarak és kisemlősök világához.
    Fantasztikus közelképek segítségével figyelhetjük meg a talajszinthez közeli párás félhomályban rejtőzködő,
    változatos formájú, szinű és alakú rovarok életét. Megtudhatjuk, miért tartják a tudósok és a környezetvédők fontosnak,
    hogy felhívják a figyelmet az esőerdők pusztulására, és miért olyan fontos a megmentésük az emberiség, a Föld jövőjének szempontjából.

    [Only admins are allowed to see this image]

    Letöltés:

    "köszönet a feltöltőnek, hectortroy engedélyével"

    Jelszó nincs

    [Only admins are allowed to see this image]

    [Only admins are allowed to see this image]

    Info

    Complete name : IMAX-Tropical.Rainforest.HDTV.720p.Eng.HunSub.mkv
    Format : Matroska
    File size : 1.46 GiB
    Duration : 37mn 48s
    Overall bit rate : 5 518 Kbps
    Movie name : "Encoded_by_HDBRiSe"
    Encoded date : UTC 2011-04-21 07:39:40
    Writing application : mkvmerge v2.2.0 ('Turn It On Again') built on Mar 4 2008 13:20:25
    Writing library : libebml v0.7.7 + libmatroska v0.8.1
    Video #1
    ID : 1
    Format : AVC
    Format/Info : Advanced Video Codec
    Format profile : High@L4.1
    Format settings, CABAC : Yes
    Format settings, ReFrames : 5 frames
    Codec ID : V_MPEG4/ISO/AVC
    Duration : 37mn 48s
    Bit rate : 5 133 Kbps
    Width : 1 280 pixels
    Height : 688 pixels
    Display aspect ratio : 1.860
    Frame rate : 23.976 fps
    Color space : YUV
    Chroma subsampling : 4:2:0
    Bit depth : 8 bits
    Scan type : Progressive
    Bits/(Pixel*Frame) : 0.243
    Stream size : 1.33 GiB (91%)
    Title : "Encoded_by_HDBRiSe"
    Language : English
    Audio #2
    ID : 2
    Format : AC-3
    Format/Info : Audio Coding 3
    Mode extension : CM (complete main)
    Codec ID : A_AC3
    Duration : 37mn 48s
    Bit rate mode : Constant
    Bit rate : 384 Kbps
    Channel(s) : 6 channels
    Channel positions : Front: L C R, Side: L R, LFE
    Sampling rate : 48.0 KHz
    Bit depth : 16 bits
    Compression mode : Lossy
    Delay relative to video : 15ms
    Stream size : 104 MiB (7%)
    Title : English AC3
    Language : English
    Text #3
    ID : 3
    Format : UTF-8
    Codec ID : S_TEXT/UTF8
    Codec ID/Info : UTF-8 Plain Text
    Language : Hungarian

    Andariel
    Töltögető
    Töltögető

    Hozzászólások száma : 16
    Join date : 2012. Mar. 05.

    Re: IMAX - Tropical Rainforest

    Témanyitás  Andariel on Csüt. Szept. 13, 2012 12:10 pm

    Köszi. Kérem a letöltőlinkeket.

      Pontos idő: Kedd. Máj. 23, 2017 8:02 am