Szólj hozzá a témához és letöltheted a tartalmat!

Prémium előfizetésel több szálon, várakozás nélküli letöltés, nagy sebességgel!


    IMAX - Wolves

    Share
    avatar
    axiss
    Data Uploader
    Data Uploader

    Hozzászólások száma : 223
    Join date : 2012. Aug. 11.
    Age : 58

    IMAX - Wolves

    Témanyitás  axiss on Kedd. Szept. 11, 2012 5:16 pm

    Farkasok

    szinkronizált,dokumentumfilm,1999

    Director: David Douglas

    Writers: David Douglas, Marc Strange

    Stars: Robbie Robertson

    [Only admins are allowed to see this image]

    Észak-Amerika leghírhedtebb ragadozóinak egyikekét olyan közeli és ritkán látható felvételeken kísérhetjük nyomon,
    amelyeket a tengerentúli kontinens legendás nemzeti parkjaiban (Yellowstone, Montana, Idaho, Alaszka és Québec)
    sikerült lencsevégre kapni.
    Nyolc hónap alatt 45 kilométernyi filmet használt fel a "Farkasok" héttagú stábja David Douglas díjnyertes rendező vezénylete alatt,
    hogy kamerájukkal megörökíthessék ezeknek a szívós állatoknak a visszahúzódó életét.
    Munkájuk eredményéből kiderül, hogy a farkasok újra nagyobb szerephez jutnak közvetlen környezetünkben
    a sikeres újratelepítési kísérleteknek és a megváltozott éghajlati körülményeknek köszönhetően.
    Érdemes tehát megnézni, kik ólálkodhatnak nemsokára a kertek alatt...

    [Only admins are allowed to see this image]

    Letöltés:

    "köszönet a feltöltőnek, hectortroy engedélyével"

    Jelszó nincs

    [Only admins are allowed to see this image]

    [Only admins are allowed to see this image]

    Info

    Complete name :IMAX.Farkasok.1999.1080p.BluRay.x264.AC3.HUN.mkv
    Format : Matroska
    File size : 3.85 GiB
    Duration : 39mn 44s
    Overall bit rate : 13.9 Mbps
    Encoded date : UTC 2012-02-25 18:22:07
    Writing application : mkvmerge v5.0.1 ('Es ist Sommer') built on Oct 13 2011 23:32:28
    Writing library : libebml v1.2.2 + libmatroska v1.3.0
    Video #1
    ID : 1
    Format : AVC
    Format/Info : Advanced Video Codec
    Format profile : High@L4.1
    Format settings, CABAC : Yes
    Format settings, ReFrames : 4 frames
    Codec ID : V_MPEG4/ISO/AVC
    Duration : 39mn 44s
    Bit rate : 13.0 Mbps
    Width : 1 920 pixels
    Height : 1 080 pixels
    Display aspect ratio : 16:9
    Frame rate : 23.976 fps
    Color space : YUV
    Chroma subsampling : 4:2:0
    Bit depth : 8 bits
    Scan type : Progressive
    Bits/(Pixel*Frame) : 0.261
    Stream size : 3.53 GiB (92%)
    Title : IMAX - Wolves
    Writing library : x264 core 104 r1713 c276662

    Language : English
    Audio #2
    ID : 2
    Format : AC-3
    Format/Info : Audio Coding 3
    Mode extension : CM (complete main)
    Codec ID : A_AC3
    Duration : 39mn 44s
    Bit rate mode : Constant
    Bit rate : 448 Kbps
    Channel(s) : 6 channels
    Channel positions : Front: L C R, Side: L R, LFE
    Sampling rate : 48.0 KHz
    Bit depth : 16 bits
    Compression mode : Lossy
    Stream size : 127 MiB (3%)
    Title : Hungarian
    Language : Hungarian
    Audio #3
    ID : 3
    Format : AC-3
    Format/Info : Audio Coding 3
    Mode extension : ME (music and effects)
    Codec ID : A_AC3
    Duration : 39mn 44s
    Bit rate mode : Constant
    Bit rate : 448 Kbps
    Channel(s) : 6 channels
    Channel positions : Front: L C R, Side: L R, LFE
    Sampling rate : 48.0 KHz
    Bit depth : 16 bits
    Compression mode : Lossy
    Stream size : 127 MiB (3%)
    Title : English
    Language : English
    Text #4
    ID : 4
    Format : UTF-8
    Codec ID : S_TEXT/UTF8
    Codec ID/Info : UTF-8 Plain Text
    Title : Hungarian Forced
    Language : Hungarian

    radiz25
    Leskelődő
    Leskelődő

    Hozzászólások száma : 1
    Join date : 2014. Oct. 26.

    hi

    Témanyitás  radiz25 on Vas. Okt. 26, 2014 2:23 am

    Jó film ajánlom!

      Pontos idő: Kedd. Ápr. 25, 2017 9:12 pm