Szólj hozzá a témához és letöltheted a tartalmat!

Prémium előfizetésel több szálon, várakozás nélküli letöltés, nagy sebességgel!


    IMAX - Zion Canyon: Treasure of the Gods

    Share
    avatar
    axiss
    Data Uploader
    Data Uploader

    Hozzászólások száma : 223
    Join date : 2012. Aug. 11.
    Age : 58

    IMAX - Zion Canyon: Treasure of the Gods

    Témanyitás  axiss on Kedd Szept. 11, 2012 5:19 pm

    Az istenek kincse

    HDTV - 720p
    feliratos amerikai ismeretterjesztő film

    Director: Kieth Merrill

    Writer: Kieth Merrill

    Stars: Michael Robert Berger, N. Paul Enciso and Sunrise Eagle Enciso

    [Only admins are allowed to see this image]

    Az Istenek Kincse elvisz minket a legrejtettebb barlangok mélyétől a szédítő hegycsúcsok tetejéig.
    A hatalmas panorámaképek kitöltik a képernyőt, így szinte a jelenlét élményével ajándékozzák meg a felfedezni vágyó nézőt,
    lélegzetelállító képsorokkal bemutatva nemcsak a Zion Kanyon, de néhány szomszédos képződmény kincseit is.
    A kanyon nevének ősi héber jelentése "a lélek pihenőhelye, menedéke".
    Ez a csodálatos táj a Colorado-fennsíknak a Great Basin és a Mojave-sivatag találkozásánál elterülő része.
    Különleges geológiai adottságai mellett élővilágának összetettsége és változatossága is egyedivé teszi.
    A kanyon egyszerre fizikai kihívás az emberi testnek és megnyugtató menedék a léleknek...
    A varázslatos földtani képződmények, a virágzó élővilág és a felülmúlhatatlan szépség találkozásának mesebeli helyszíne.

    A filmben többször is megjelenik a jobb felső sarokban reklám szöveg, ezért mindenkitől elnézést kérek.
    Ezért csak az töltse le akit ez nem zavar...


    [Only admins are allowed to see this image]

    Letöltés:

    "köszönet a feltöltőnek, hectortroy engedélyével"

    Jelszó nincs

    [Only admins are allowed to see this image]

    [Only admins are allowed to see this image]

    Info

    Complete name : IMAX-Zion.Canyon.Treasure.of.the.Gods.HDTV.720p.Eng.Hun Sub.mkv
    Format : Matroska
    File size : 1.37 GiB
    Duration : 37mn 7s
    Overall bit rate : 5 269 Kbps
    Encoded date : UTC 2011-07-11 19:12:48
    Writing application : mkvmerge v2.5.1 ('He Wasn't There') built on Feb 22 2009 18:19:47
    Writing library : libebml v0.7.7 + libmatroska v0.8.1
    Video #1
    ID : 1
    Format : AVC
    Format/Info : Advanced Video Codec
    Format profile : High@L4.0
    Format settings, CABAC : No
    Format settings, ReFrames : 1 frame
    Codec ID : V_MPEG4/ISO/AVC
    Duration : 37mn 7s
    Bit rate : 5 000 Kbps
    Width : 1 280 pixels
    Height : 720 pixels
    Display aspect ratio : 16:9
    Frame rate : 29.970 fps
    Color space : YUV
    Chroma subsampling : 4:2:0
    Bit depth : 8 bits
    Scan type : Progressive
    Bits/(Pixel*Frame) : 0.181
    Stream size : 1.29 GiB (94%)
    Audio #2
    ID : 2
    Format : MPEG Audio
    Format version : Version 1
    Format profile : Layer 3
    Mode : Joint stereo
    Mode extension : MS Stereo
    Codec ID : A_MPEG/L3
    Codec ID/Hint : MP3
    Duration : 37mn 7s
    Bit rate mode : Constant
    Bit rate : 192 Kbps
    Channel(s) : 2 channels
    Sampling rate : 44.1 KHz
    Compression mode : Lossy
    Stream size : 51.0 MiB (4%)
    Text #3
    ID : 3
    Format : UTF-8
    Codec ID : S_TEXT/UTF8
    Codec ID/Info : UTF-8 Plain Text
    Language : Hungarian

      Pontos idő: Hétf. Dec. 11, 2017 10:09 am