Szólj hozzá a témához és letöltheted a tartalmat!

Prémium előfizetésel több szálon, várakozás nélküli letöltés, nagy sebességgel!


    IMAX - Africa: The Serengeti

    Share

    axiss
    Data Uploader
    Data Uploader

    Hozzászólások száma : 223
    Join date : 2012. Aug. 11.
    Age : 57

    IMAX - Africa: The Serengeti

    Témanyitás  axiss on Kedd. Szept. 11, 2012 5:20 pm

    Afrika: A Serengeti Nemzeti Park

    szinkronizált, amerikai ismeretterjesztő film, 1994

    rendező: George Casey

    forgatókönyvíró: Mose Richards, George Casey

    zeneszerző: Hans Zimmer

    operatőr: Andrew Kitzanuk

    vágó: Tim Huntley

    szereplő(k):
    James Earl Jones (narrátor)

    [Only admins are allowed to see this image]

    Ez az IMAX technikával forgatott film egy felejthetetlen utazásra visz Kelet-Afrikába,
    a Nagy Vándorlás eddig kevesek által látott földjére.
    Kétmillió vadállat, zebrák és antilopok, amint nyolcszáz kilométeren keresztül vágtatnak a Serengeti síkságon.
    Az élet és a halál közelről, a legnagyobb részletességgel egy felejthetetlen filmben.
    Látványos tájképek, dinamikus légifelvételek Tanzánia és Kenya tájairól -
    és természetesen Afrika ragadozói, az oroszlánok és krokodilok a kiszemelt préda üldözése közben.

    [Only admins are allowed to see this image]

    Letöltés:

    "köszönet a feltöltőnek, hectortroy engedélyével"

    Jelszó nincs

    [Only admins are allowed to see this image]

    [Only admins are allowed to see this image]

    Info

    Complete name : IMAX-Africa.The.Serengeti.1994.Blu-ray.720p.264.Eng.HunDub.mkv
    Format : Matroska
    File size : 2.92 GiB
    Duration : 39mn 22s
    Overall bit rate : 10.6 Mbps
    Movie name : Encoded_by_HDBRiSe_for_HD-BiTs.ro
    Encoded date : UTC 2009-07-11 14:47:27
    Writing application : mkvmerge v2.6.0 ('Kelly watch the Stars') built on Mar 24 2009 15:23:17
    Writing library : libebml v0.7.7 + libmatroska v0.8.1
    Video #1
    ID : 1
    Format : AVC
    Format/Info : Advanced Video Codec
    Format profile : High@L4.1
    Format settings, CABAC : Yes
    Format settings, ReFrames : 4 frames
    Codec ID : V_MPEG4/ISO/AVC
    Duration : 39mn 22s
    Bit rate : 7 014 Kbps
    Width : 1 280 pixels
    Height : 720 pixels
    Display aspect ratio : 16:9
    Frame rate : 24.000 fps
    Color space : YUV
    Chroma subsampling : 4:2:0
    Bit depth : 8 bits
    Scan type : Progressive
    Bits/(Pixel*Frame) : 0.317
    Stream size : 1.87 GiB (64%)
    Title : IMAX.Africa.The.Serengeti.1994.Blu-ray.720p.HDBRiSe
    Writing library : x264 core 67 r1173M f6d3166
    Language : English
    Audio #2
    ID : 2
    Format : AC-3
    Format/Info : Audio Coding 3
    Mode extension : CM (complete main)
    Codec ID : A_AC3
    Duration : 39mn 22s
    Bit rate mode : Constant
    Bit rate : 448 Kbps
    Channel(s) : 6 channels
    Channel positions : Front: L C R, Side: L R, LFE
    Sampling rate : 48.0 KHz
    Bit depth : 16 bits
    Compression mode : Lossy
    Stream size : 126 MiB (4%)
    Title : IMAX.Africa.The.Serengeti.1994.Blu-ray.AC3.HDBRiSe
    Language : English
    Audio #3
    ID : 3
    Format : AC-3
    Format/Info : Audio Coding 3
    Mode extension : CM (complete main)
    Codec ID : A_AC3
    Duration : 39mn 22s
    Bit rate mode : Constant
    Bit rate : 448 Kbps
    Channel(s) : 6 channels
    Channel positions : Front: L C R, Side: L R, LFE
    Sampling rate : 48.0 KHz
    Bit depth : 16 bits
    Compression mode : Lossy
    Stream size : 126 MiB (4%)
    Title : IMAX.Africa.The.Serengeti.1994.Blu-ray.AC3.HDBRiSe
    Language : German
    Audio #4
    ID : 4
    Format : AC-3
    Format/Info : Audio Coding 3
    Mode extension : CM (complete main)
    Codec ID : A_AC3
    Duration : 39mn 22s
    Bit rate mode : Constant
    Bit rate : 448 Kbps
    Channel(s) : 6 channels
    Channel positions : Front: L C R, Side: L R, LFE
    Sampling rate : 48.0 KHz
    Bit depth : 16 bits
    Compression mode : Lossy
    Stream size : 126 MiB (4%)
    Title : IMAX.Africa.The.Serengeti.1994.Blu-ray.AC3.HDBRiSe
    Language : Chinese
    Audio #5
    ID : 5
    Format : AC-3
    Format/Info : Audio Coding 3
    Mode extension : CM (complete main)
    Codec ID : A_AC3
    Duration : 39mn 22s
    Bit rate mode : Constant
    Bit rate : 448 Kbps
    Channel(s) : 6 channels
    Channel positions : Front: L C R, Side: L R, LFE
    Sampling rate : 48.0 KHz
    Bit depth : 16 bits
    Compression mode : Lossy
    Stream size : 126 MiB (4%)
    Title : IMAX.Africa.The.Serengeti.1994.Blu-ray.AC3.HDBRiSe
    Language : French
    Audio #6
    ID : 6
    Format : AC-3
    Format/Info : Audio Coding 3
    Mode extension : CM (complete main)
    Codec ID : A_AC3
    Duration : 39mn 22s
    Bit rate mode : Constant
    Bit rate : 448 Kbps
    Channel(s) : 6 channels
    Channel positions : Front: L C R, Side: L R, LFE
    Sampling rate : 48.0 KHz
    Bit depth : 16 bits
    Compression mode : Lossy
    Stream size : 126 MiB (4%)
    Title : IMAX.Africa.The.Serengeti.1994.Blu-ray.AC3.HDBRiSe
    Language : Spanish
    Audio #7
    ID : 7
    Format : AC-3
    Format/Info : Audio Coding 3
    Mode extension : CM (complete main)
    Codec ID : A_AC3
    Duration : 39mn 22s
    Bit rate mode : Constant
    Bit rate : 448 Kbps
    Channel(s) : 6 channels
    Channel positions : Front: L C R, Side: L R, LFE
    Sampling rate : 48.0 KHz
    Bit depth : 16 bits
    Compression mode : Lossy
    Stream size : 126 MiB (4%)
    Title : IMAX.Africa.The.Serengeti.1994.Blu-ray.AC3.HDBRiSe
    Language : Korean
    Audio #8
    ID : 8
    Format : AC-3
    Format/Info : Audio Coding 3
    Mode extension : CM (complete main)
    Codec ID : A_AC3
    Duration : 39mn 22s
    Bit rate mode : Constant
    Bit rate : 448 Kbps
    Channel(s) : 6 channels
    Channel positions : Front: L C R, Side: L R, LFE
    Sampling rate : 48.0 KHz
    Bit depth : 16 bits
    Compression mode : Lossy
    Stream size : 126 MiB (4%)
    Title : IMAX.Africa.The.Serengeti.1994.Blu-ray.AC3.HDBRiSe
    Language : Hungarian
    Audio #9
    ID : 9
    Format : AC-3
    Format/Info : Audio Coding 3
    Mode extension : CM (complete main)
    Codec ID : A_AC3
    Duration : 39mn 22s
    Bit rate mode : Constant
    Bit rate : 448 Kbps
    Channel(s) : 6 channels
    Channel positions : Front: L C R, Side: L R, LFE
    Sampling rate : 48.0 KHz
    Bit depth : 16 bits
    Compression mode : Lossy
    Stream size : 126 MiB (4%)
    Title : IMAX.Africa.The.Serengeti.1994.Blu-ray.AC3.HDBRiSe
    Language : Czech

      Pontos idő: Hétf. Jan. 16, 2017 6:20 pm