Szólj hozzá a témához és letöltheted a tartalmat!

Prémium előfizetésel több szálon, várakozás nélküli letöltés, nagy sebességgel!


    IMAX - Amazing Journeys

    Share
    avatar
    axiss
    Data Uploader
    Data Uploader

    Hozzászólások száma : 223
    Join date : 2012. Aug. 11.
    Age : 58

    IMAX - Amazing Journeys

    Témanyitás  axiss on Kedd. Szept. 11, 2012 5:27 pm

    Elképesztő vándorlások

    feliratos dokumentumfilm, 1999.

    Director: George Casey

    Writers: Mose Richards, Tim Huntley (additional narration)

    Stars: Robert Foxworth, Wemi Ajigrotafe and David L. Barbee

    [Only admins are allowed to see this image]

    Legyen tanúja a fantasztikus látványnak!
    A Föld milliónyi teremtménye elképesztő vándorlásokra indul a túlélés érdekében!
    Nézze meg, ahogy aranyló viharként töltik meg az eget a danaida-pillangók tízmilliói a mexikói fennsíkok fölött.
    Tartson a vándorló madarakkal, akik a nap, a csillagok, és ösztönük alapján tájékozódnak!
    Vessen egy pillantást a Baja California gyönyörű lagúnáiban tanyázó szürke bálnákra!
    Fedezze fel, amint az Indiai-óceánon fekvő parányi Karácsony-szigeten több mint százmillió vörös rák kel útra!
    Csatlakozzon hozzánk, és bemutatjuk, hogyan vándorol több ezer zebra Kelet-Afrika végtelen szavannáin!
    Utazzon vissza az időben Afrika egzotikus törzsei közé, hogy meglelje az emberiség vándorlásának gyökereit!
    Ezen a bámulatos vándorúton örökíti meg az élet és halál drámáit az
    ''Elképesztő vándorlások'' című film.

    [Only admins are allowed to see this image]

    Letöltés:

    "köszönet a feltöltőnek, hectortroy engedélyével"

    Jelszó nincs

    [Only admins are allowed to see this image]

    [Only admins are allowed to see this image]

    Info


    Complete name : IMAX-Amazing.Journeys.1999.1080p.Eng.HunSub.mkv
    Format : Matroska
    File size : 3.55 GiB
    Duration : 39mn 25s
    Overall bit rate : 12.9 Mbps
    Encoded date : UTC 2011-04-21 19:41:06
    Writing application : mkvmerge v2.2.0 ('Turn It On Again') built on Mar 4 2008 13:20:25
    Writing library : libebml v0.7.7 + libmatroska v0.8.1
    Video #1
    ID : 1
    Format : AVC
    Format/Info : Advanced Video Codec
    Format profile : High@L4.1
    Format settings, CABAC : Yes
    Format settings, ReFrames : 5 frames
    Format settings, GOP : M=2, N=21
    Codec ID : V_MPEG4/ISO/AVC
    Duration : 39mn 26s
    Bit rate : 12.4 Mbps
    Width : 1 920 pixels
    Height : 1 080 pixels
    Display aspect ratio : 16:9
    Frame rate : 24.000 fps
    Color space : YUV
    Chroma subsampling : 4:2:0
    Bit depth : 8 bits
    Scan type : Progressive
    Bits/(Pixel*Frame) : 0.250
    Stream size : 3.36 GiB (95%)

    Audio #2
    ID : 2
    Format : AC-3
    Format/Info : Audio Coding 3
    Mode extension : CM (complete main)
    Codec ID : A_AC3
    Duration : 39mn 25s
    Bit rate mode : Constant
    Bit rate : 448 Kbps
    Channel(s) : 6 channels
    Channel positions : Front: L C R, Side: L R, LFE
    Sampling rate : 48.0 KHz
    Bit depth : 16 bits
    Compression mode : Lossy
    Stream size : 126 MiB (3%)
    Text #3
    ID : 3
    Format : UTF-8
    Codec ID : S_TEXT/UTF8
    Codec ID/Info : UTF-8 Plain Text
    Language : Hungarian

    Andariel
    Töltögető
    Töltögető

    Hozzászólások száma : 16
    Join date : 2012. Mar. 05.

    Re: IMAX - Amazing Journeys

    Témanyitás  Andariel on Csüt. Szept. 13, 2012 11:56 am

    Kíváncsi lennék rá.

      Pontos idő: Hétf. Jún. 26, 2017 3:01 am