Szólj hozzá a témához és letöltheted a tartalmat!

Prémium előfizetésel több szálon, várakozás nélküli letöltés, nagy sebességgel!


    A Google titkai

    Share
    avatar
    axiss
    Data Uploader
    Data Uploader

    Hozzászólások száma : 223
    Join date : 2012. Aug. 11.
    Age : 58

    A Google titkai

    Témanyitás  axiss on Kedd. Szept. 11, 2012 5:32 pm

    A Google titkai

    [Only admins are allowed to see this image]

    Igen érdekes film, nem tudjuk hogy hálásak legyünk kedvenc keresőnknek vagy inkább féljünk tőle. Olyan ez mint az öreg kandúr - hízeleg, de nagyok a karmai.
    Maga a film 45 perc, dokumentum jellegű, Hollandok készítették és érdemes végignézni. A Google egyik alkalmazottja nyíltan bevallja -
    igen adatokat gyűjtünk a felhasználóink keresési szokásairól, és azokat el is raktározzuk. Majd később még hozzáteszi, de bizalmasan kezeljük és nem élünk vissza vele......
    Véleményem szerint, már túl erős, túl hatalmas ahhoz hogy kordába lehessen tartani. Hatalmassága nem csak a részvényeiben, saját műholdjaiban,
    saját vízerőműveiben és gigantikus befektetéseiben rejlik, hanem abban a hihetetlen sok információban amihez hozzáfér,
    illetve amit - mi felhasználók kínálunk fel neki.

    [Only admins are allowed to see this image]

    Letöltés:

    Jelszó nincs
    [Only admins are allowed to see this image]

    info

    Complete name : Google.divx
    Format : AVI
    Format/Info : Audio Video Interleave
    File size : 360 MiB
    Duration : 46mn 59s
    Overall bit rate : 1 071 Kbps
    Writing application : VirtualDubMod 1.5.4.1 (build 2178/release)
    Writing library : VirtualDubMod build 2178/release
    Video #0
    ID : 0
    Format : MPEG-4 Visual
    Format profile : Advanced Simple@L5
    Format settings, BVOP : 1
    Format settings, QPel : No
    Format settings, GMC : No warppoints
    Format settings, Matrix : Custom
    Codec ID : XVID
    Codec ID/Hint : XviD
    Duration : 46mn 59s
    Bit rate : 954 Kbps
    Width : 592 pixels
    Height : 336 pixels
    Display aspect ratio : 16:9
    Frame rate : 25.000 fps
    Color space : YUV
    Chroma subsampling : 4:2:0
    Bit depth : 8 bits
    Scan type : Progressive
    Compression mode : Lossy
    Bits/(Pixel*Frame) : 0.192
    Stream size : 321 MiB (89%)
    Writing library : XviD 1.2.0SMP (UTC 2006-01-08)
    Audio #1
    ID : 1
    Format : MPEG Audio
    Format version : Version 1
    Format profile : Layer 3
    Mode : Joint stereo
    Mode extension : MS Stereo
    Codec ID : 55
    Codec ID/Hint : MP3
    Duration : 46mn 59s
    Bit rate mode : Variable
    Bit rate : 104 Kbps
    Nominal bit rate : 112 Kbps
    Channel(s) : 2 channels
    Sampling rate : 44.1 KHz
    Compression mode : Lossy
    Stream size : 35.1 MiB (10%)
    Alignment : Aligned on interleaves

    worm.opnis
    Leskelődő
    Leskelődő

    Hozzászólások száma : 3
    Join date : 2012. Nov. 26.

    Re: A Google titkai

    Témanyitás  worm.opnis on Csüt. Dec. 13, 2012 9:44 pm

    Köszke !

    musicboy
    Fanatikus
    Fanatikus

    Hozzászólások száma : 24
    Join date : 2012. Jul. 13.

    Re: A Google titkai

    Témanyitás  musicboy on Szomb. Feb. 16, 2013 8:14 pm

    köszönet érte....... cheers

    anixe
    Leskelődő
    Leskelődő

    Hozzászólások száma : 8
    Join date : 2012. Feb. 10.

    Re: A Google titkai

    Témanyitás  anixe on Szomb. Márc. 16, 2013 7:24 pm

    köszi

    matheus16
    Leskelődő
    Leskelődő

    Hozzászólások száma : 6
    Join date : 2012. Nov. 30.

    Re: A Google titkai

    Témanyitás  matheus16 on Szer. Márc. 20, 2013 11:32 am

    köszi

    Sponsored content

    Re: A Google titkai

    Témanyitás  Sponsored content


      Pontos idő: Kedd. Jún. 27, 2017 2:48 pm