Szólj hozzá a témához és letöltheted a tartalmat!

Prémium előfizetésel több szálon, várakozás nélküli letöltés, nagy sebességgel!


    Hogyan végezzünk ki "egy embert"

    Share

    axiss
    Data Uploader
    Data Uploader

    Hozzászólások száma : 223
    Join date : 2012. Aug. 11.
    Age : 57

    Hogyan végezzünk ki "egy embert"

    Témanyitás  axiss on Kedd. Szept. 11, 2012 5:34 pm

    Hogyan végezzünk ki "egy embert"

    [Only admins are allowed to see this image]

    A halálbüntetés válságban van. Számos nagy visszhangot keltő, hibásan végrehajtott kivégzés után befolyásos lobbicsoportok világszerte humánus és megbízható módszer után kiáltanak.
    De vajon van-e ilyen módszer? Michael Portillo egykori politikus utánajár a kérdésnek. Utazása során bejárja Angliát és Amerikát, találkozik a halál szakértőivel:
    nyugdíjas ítéletvégrehajtókkal és toxikológusokkal, biomechanikai specialistákkal és baleseti sebészekkel; de a rosszul elsült kivégzések szemtanúival is.
    Michael kísérleteket végez, hogy kiderítse, miért olyan könnyű elrontani az akasztást, miért olyan szörnyű a mérges gáz, és rámutat a halálos injekciók gyenge pontjaira is.
    Miután megvizsgálta a használatban lévő ítéletvégrehajtási módszerek történetét és tudományos hátterét,
    Michael szemügyre vesz néhány alternatív megoldást.

    [Only admins are allowed to see this image]

    Letöltés:

    [Only admins are allowed to see this image]

    [Only admins are allowed to see this image]

    Info
    TvRip
    Complete name : HogyanVegezzunk2007-LV.avi
    Format : AVI
    Format/Info : Audio Video Interleave
    File size : 560 MiB
    Duration : 48mn 49s
    Overall bit rate : 1 604 Kbps
    Writing library : MPlayer
    Video #0
    ID : 0
    Format : MPEG-4 Visual
    Format profile : Simple@L1
    Format settings, BVOP : No
    Format settings, QPel : No
    Format settings, GMC : No warppoints
    Format settings, Matrix : Default (H.263)
    Codec ID : DX50
    Codec ID/Hint : DivX 5
    Duration : 48mn 49s
    Bit rate : 1 399 Kbps
    Width : 640 pixels
    Height : 480 pixels
    Display aspect ratio : 4:3
    Frame rate : 25.000 fps
    Color space : YUV
    Chroma subsampling : 4:2:0
    Bit depth : 8 bits
    Scan type : Interlaced
    Scan order : Top Field First
    Compression mode : Lossy
    Bits/(Pixel*Frame) : 0.182
    Stream size : 489 MiB (87%)
    Writing library : Lavc52.72.2
    Audio #1
    ID : 1
    Format : MPEG Audio
    Format version : Version 1
    Format profile : Layer 3
    Mode : Joint stereo
    Mode extension : MS Stereo
    Codec ID : 55
    Codec ID/Hint : MP3
    Duration : 48mn 49s
    Bit rate mode : Constant
    Bit rate : 192 Kbps
    Channel(s) : 2 channels
    Sampling rate : 44.1 KHz
    Compression mode : Lossy
    Stream size : 67.0 MiB (12%)
    Alignment : Aligned on interleaves
    Interleave, duration : 26 ms (0.65 video frame)
    Interleave, preload duration : 809 ms
    Writing library : LAMEŞ

    Quarantine
    Leskelődő
    Leskelődő

    Hozzászólások száma : 1
    Join date : 2012. Sep. 17.

    Re: Hogyan végezzünk ki "egy embert"

    Témanyitás  Quarantine on Hétf. Szept. 17, 2012 11:49 am

    THX!

    joskabacsi
    Leskelődő
    Leskelődő

    Hozzászólások száma : 2
    Join date : 2012. Sep. 18.

    Re: Hogyan végezzünk ki "egy embert"

    Témanyitás  joskabacsi on Kedd. Szept. 18, 2012 8:46 pm

    köszi

    worm.opnis
    Leskelődő
    Leskelődő

    Hozzászólások száma : 3
    Join date : 2012. Nov. 26.

    Re: Hogyan végezzünk ki "egy embert"

    Témanyitás  worm.opnis on Csüt. Dec. 13, 2012 9:41 pm

    köszönöm!

    bbci
    Töltögető
    Töltögető

    Hozzászólások száma : 13
    Join date : 2012. Aug. 21.

    Re: Hogyan végezzünk ki "egy embert"

    Témanyitás  bbci on Vas. Jan. 13, 2013 3:39 pm

    Köszönöm.

    Jozsi49
    Töltögető
    Töltögető

    Hozzászólások száma : 19
    Join date : 2012. Mar. 01.

    Re: Hogyan végezzünk ki "egy embert"

    Témanyitás  Jozsi49 on Szer. Márc. 20, 2013 4:46 pm

    Koszonom szepen

    mazsi01
    Leskelődő
    Leskelődő

    Hozzászólások száma : 2
    Join date : 2013. May. 02.

    Re: Hogyan végezzünk ki "egy embert"

    Témanyitás  mazsi01 on Csüt. Máj. 02, 2013 9:45 am

    Köszi.

    papu
    Fanatikus
    Fanatikus

    Hozzászólások száma : 28
    Join date : 2013. May. 27.

    Re: Hogyan végezzünk ki "egy embert"

    Témanyitás  papu on Hétf. Máj. 27, 2013 11:57 am

    köszönöm

    laci1960
    Leskelődő
    Leskelődő

    Hozzászólások száma : 5
    Join date : 2014. Jan. 31.

    Re: Hogyan végezzünk ki "egy embert"

    Témanyitás  laci1960 on Szer. Ápr. 23, 2014 3:32 am

    köszi

    dandi1
    Töltögető
    Töltögető

    Hozzászólások száma : 10
    Join date : 2014. Sep. 06.

    Re: Hogyan végezzünk ki "egy embert"

    Témanyitás  dandi1 on Vas. Szept. 07, 2014 7:12 pm

    köszönöm

    Sponsored content

    Re: Hogyan végezzünk ki "egy embert"

    Témanyitás  Sponsored content


      Pontos idő: Vas. Feb. 26, 2017 4:14 am