Szólj hozzá a témához és letöltheted a tartalmat!

Prémium előfizetésel több szálon, várakozás nélküli letöltés, nagy sebességgel!


    Dinoszauruszok bolygója Episode 1

    Share
    avatar
    axiss
    Data Uploader
    Data Uploader

    Hozzászólások száma : 223
    Join date : 2012. Aug. 11.
    Age : 58

    Dinoszauruszok bolygója Episode 1

    Témanyitás  axiss on Kedd Szept. 11, 2012 5:39 pm

    Dinoszauruszok bolygója

    Episode 1

    Elveszett világ

    feliratos dokumentumfilm

    [Only admins are allowed to see this image]

    A leghalálosabb gyilkosok, a legnagyobb és legkülönösebb állatok,
    a Planet Dinosaur életre kelti a dinoszauruszok félelmetes világát a látványos technikával elkészített sorozatban.
    Több dinoszauruszt fedeztek fel az elmúlt évtizedben mint az elmúlt 200 évben.
    A sorozat a legújabb felfedezések által fedi fel ezeknek az óriásoknak a titkait.
    Tartson velünk ön is ebben a lenyűgöző sorozatban és fedezze fel a több millió évvel ezelőtti világot.

    [Only admins are allowed to see this image]

    Letöltés:

    Jelszó nics

    [Only admins are allowed to see this image]

    [Only admins are allowed to see this image]

    Info

    Complete name : Planet.Dinosaur.S01E01.Lost.World.720p.mkv
    Format : Matroska
    File size : 671 MiB
    Duration : 28mn 3s
    Overall bit rate : 3 344 Kbps
    Encoded date : UTC 2011-10-09 13:33:33
    Writing application : mkvmerge v2.5.1 ('He Wasn't There') built on Feb 22 2009 18:19:47
    Writing library : libebml v0.7.7 + libmatroska v0.8.1
    Video #1
    ID : 1
    Format : AVC
    Format/Info : Advanced Video Codec
    Format profile : High@L4.1
    Format settings, CABAC : Yes
    Format settings, ReFrames : 9 frames
    Codec ID : V_MPEG4/ISO/AVC
    Duration : 28mn 3s
    Bit rate : 2 894 Kbps
    Width : 1 280 pixels
    Height : 720 pixels
    Display aspect ratio : 16:9
    Frame rate : 25.000 fps
    Color space : YUV
    Chroma subsampling : 4:2:0
    Bit depth : 8 bits
    Scan type : Progressive
    Bits/(Pixel*Frame) : 0.126
    Stream size : 581 MiB (87%)
    Writing library : x264 core 116 r2074 2641b9e
    Language : English
    Audio #2
    ID : 2
    Format : AC-3
    Format/Info : Audio Coding 3
    Mode extension : CM (complete main)
    Codec ID : A_AC3
    Duration : 28mn 3s
    Bit rate mode : Constant
    Bit rate : 384 Kbps
    Channel(s) : 6 channels
    Channel positions : Front: L C R, Side: L R, LFE
    Sampling rate : 48.0 KHz
    Bit depth : 16 bits
    Compression mode : Lossy
    Stream size : 77.1 MiB (11%)
    Text #3
    ID : 3
    Format : UTF-8
    Codec ID : S_TEXT/UTF8
    Codec ID/Info : UTF-8 Plain Text
    Language : Hungarian

    csimpika
    Fanatikus
    Fanatikus

    Hozzászólások száma : 39
    Join date : 2012. Dec. 07.

    Re: Dinoszauruszok bolygója Episode 1

    Témanyitás  csimpika on Szomb. Dec. 08, 2012 12:36 am

    Köszönöm szépen!

    jargal
    Töltögető
    Töltögető

    Hozzászólások száma : 14
    Join date : 2012. Sep. 18.

    Re: Dinoszauruszok bolygója Episode 1

    Témanyitás  jargal on Kedd Szept. 17, 2013 9:04 am

    köszönöm

    Sponsored content

    Re: Dinoszauruszok bolygója Episode 1

    Témanyitás  Sponsored content


      Pontos idő: Szomb. Szept. 23, 2017 12:12 pm