Szólj hozzá a témához és letöltheted a tartalmat!

Prémium előfizetésel több szálon, várakozás nélküli letöltés, nagy sebességgel!


    Dinoszauruszok bolygója Episode 3

    Share
    avatar
    axiss
    Data Uploader
    Data Uploader

    Hozzászólások száma : 223
    Join date : 2012. Aug. 11.
    Age : 58

    Dinoszauruszok bolygója Episode 3

    Témanyitás  axiss on Kedd. Szept. 11, 2012 5:43 pm

    Dinoszauruszok bolygója

    Episode 3

    Az utolsó gyilkosok

    feliratos dokumentumfilm

    [Only admins are allowed to see this image]

    A leghalálosabb gyilkosok, a legnagyobb és legkülönösebb állatok,
    a Planet Dinosaur életre kelti a dinoszauruszok félelmetes világát a látványos technikával elkészített sorozatban.
    Több dinoszauruszt fedeztek fel az elmúlt évtizedben mint az elmúlt 200 évben.
    A sorozat a legújabb felfedezések által fedi fel ezeknek az óriásoknak a titkait.
    Tartson velünk ön is ebben a lenyűgöző sorozatban és fedezze fel a több millió évvel ezelőtti világot.

    [Only admins are allowed to see this image]

    Letöltés:

    Jelszó nincs

    [Only admins are allowed to see this image]

    [Only admins are allowed to see this image]

    Info

    Complete name : Planet.Dinosaur.S01E03.Last.Killers.720p.mkv
    Format : Matroska
    File size : 799 MiB
    Duration : 29mn 18s
    Overall bit rate : 3 809 Kbps
    Encoded date : UTC 2011-10-09 13:35:47
    Writing application : mkvmerge v2.5.1 ('He Wasn't There') built on Feb 22 2009 18:19:47
    Writing library : libebml v0.7.7 + libmatroska v0.8.1
    Video #1
    ID : 1
    Format : AVC
    Format/Info : Advanced Video Codec
    Format profile : High@L4.1
    Format settings, CABAC : Yes
    Format settings, ReFrames : 5 frames
    Codec ID : V_MPEG4/ISO/AVC
    Duration : 29mn 18s
    Bit rate : 3 349 Kbps
    Width : 1 280 pixels
    Height : 720 pixels
    Display aspect ratio : 16:9
    Frame rate : 25.000 fps
    Color space : YUV
    Chroma subsampling : 4:2:0
    Bit depth : 8 bits
    Scan type : Progressive
    Bits/(Pixel*Frame) : 0.145
    Stream size : 702 MiB (88%)
    Writing library : x264 core 118 r2085 8a62835
    Audio #2
    ID : 2
    Format : AC-3
    Format/Info : Audio Coding 3
    Mode extension : CM (complete main)
    Codec ID : A_AC3
    Duration : 29mn 18s
    Bit rate mode : Constant
    Bit rate : 384 Kbps
    Channel(s) : 6 channels
    Channel positions : Front: L C R, Side: L R, LFE
    Sampling rate : 48.0 KHz
    Bit depth : 16 bits
    Compression mode : Lossy
    Stream size : 80.5 MiB (10%)
    Text #3
    ID : 3
    Format : UTF-8
    Codec ID : S_TEXT/UTF8
    Codec ID/Info : UTF-8 Plain Text
    Language : Hungarian

    csimpika
    Fanatikus
    Fanatikus

    Hozzászólások száma : 39
    Join date : 2012. Dec. 07.

    Re: Dinoszauruszok bolygója Episode 3

    Témanyitás  csimpika on Szomb. Dec. 08, 2012 12:36 am

    Köszönöm szépen!

    jargal
    Töltögető
    Töltögető

    Hozzászólások száma : 14
    Join date : 2012. Sep. 18.

    Re: Dinoszauruszok bolygója Episode 3

    Témanyitás  jargal on Kedd. Szept. 17, 2013 9:14 am

    köszönöm

    Sponsored content

    Re: Dinoszauruszok bolygója Episode 3

    Témanyitás  Sponsored content


      Pontos idő: Hétf. Jún. 26, 2017 3:01 am