Szólj hozzá a témához és letöltheted a tartalmat!

Prémium előfizetésel több szálon, várakozás nélküli letöltés, nagy sebességgel!


    Privat Dvd-104 (2014). | Szinkronizált amatőr szex. | DVDRiP | data.hu

    Share

    Admin
    Admin
    Admin

    Hozzászólások száma : 493
    Join date : 2012. Feb. 06.
    Age : 68
    Tartózkodási hely : Bp.

    Privat Dvd-104 (2014). | Szinkronizált amatőr szex. | DVDRiP | data.hu

    Témanyitás  Admin on Szomb. Márc. 07, 2015 2:35 pm

    First topic message reminder :







    Privat Dvd-104.

    Eredeti privát szexvideók, rengeteg magyar amatőr csajjal.

    Hang:  magyar

    Műfaj: sex



    Tartalom:
    Amatőr szex filmek .

    Complete name : Privßt DVD 104\Title 3.mp4
    Format : MPEG-4
    Format profile : Base Media / Version 2
    Codec ID : mp42
    File size : 419 MiB
    Duration : 26mn 14s
    Overall bit rate mode : Variable
    Overall bit rate : 2 232 Kbps
    Encoded date : UTC 2014-09-22 08:26:06
    Tagged date : UTC 2014-09-22 09:03:00
    Writing application : HandBrake 0.9.9 2013052900

    Video
    ID : 1
    Format : AVC
    Format/Info : Advanced Video Codec
    Format profile : High@L3.0
    Format settings, CABAC : Yes
    Format settings, ReFrames : 5 frames
    Codec ID : avc1
    Codec ID/Info : Advanced Video Coding
    Duration : 26mn 14s
    Bit rate mode : Variable
    Bit rate : 2 100 Kbps
    Width : 720 pixels
    Height : 576 pixels
    Display aspect ratio : 16:9
    Frame rate mode : Constant
    Frame rate : 25.000 fps
    Standard : PAL
    Color space : YUV
    Chroma subsampling : 4:2:0
    Bit depth : 8 bits
    Scan type : Progressive
    Bits/(Pixel*Frame) : 0.203
    Stream size : 394 MiB (94%)
    Writing library : x264 core 130 r2273 b3065e6


    Audio
    ID : 2
    Format : AAC
    Format/Info : Advanced Audio Codec
    Format profile : LC
    Codec ID : 40
    Duration : 26mn 14s
    Bit rate mode : Variable
    Bit rate : 128 Kbps
    Maximum bit rate : 154 Kbps
    Channel(s) : 2 channels
    Channel positions : Front: L R
    Sampling rate : 48.0 KHz
    Compression mode : Lossy
    Delay relative to video : 80ms
    Stream size : 24.0 MiB (6%)
    Language : English
    Encoded date : UTC 2014-09-22 08:26:06













    jocijo
    Fanatikus
    Fanatikus

    Hozzászólások száma : 25
    Join date : 2016. Jan. 30.

    Re: Privat Dvd-104 (2014). | Szinkronizált amatőr szex. | DVDRiP | data.hu

    Témanyitás  jocijo on Szomb. Jan. 30, 2016 10:57 pm

    köszi

    dobos4823
    Töltögető
    Töltögető

    Hozzászólások száma : 14
    Join date : 2015. Dec. 12.

    Re: Privat Dvd-104 (2014). | Szinkronizált amatőr szex. | DVDRiP | data.hu

    Témanyitás  dobos4823 on Szomb. Feb. 06, 2016 6:06 pm

    Exclamation

    dobos4823
    Töltögető
    Töltögető

    Hozzászólások száma : 14
    Join date : 2015. Dec. 12.

    Re: Privat Dvd-104 (2014). | Szinkronizált amatőr szex. | DVDRiP | data.hu

    Témanyitás  dobos4823 on Szomb. Feb. 06, 2016 6:06 pm

    Exclamation

    alkes25
    Töltögető
    Töltögető

    Hozzászólások száma : 18
    Join date : 2015. Dec. 25.

    Re: Privat Dvd-104 (2014). | Szinkronizált amatőr szex. | DVDRiP | data.hu

    Témanyitás  alkes25 on Szomb. Feb. 20, 2016 4:38 am

    thx

    cseteseknek
    Töltögető
    Töltögető

    Hozzászólások száma : 12
    Join date : 2016. Apr. 29.

    Re: Privat Dvd-104 (2014). | Szinkronizált amatőr szex. | DVDRiP | data.hu

    Témanyitás  cseteseknek on Szomb. Ápr. 30, 2016 12:35 pm

    Very Happy

    madar51
    Leskelődő
    Leskelődő

    Hozzászólások száma : 4
    Join date : 2013. Sep. 01.

    Re: Privat Dvd-104 (2014). | Szinkronizált amatőr szex. | DVDRiP | data.hu

    Témanyitás  madar51 on Szomb. Máj. 07, 2016 11:05 am

    Köszönet

    thegame
    Leskelődő
    Leskelődő

    Hozzászólások száma : 8
    Join date : 2016. May. 17.

    Privat Dvd-104 (2014). | Szinkronizált amatőr szex.

    Témanyitás  thegame on Kedd. Máj. 17, 2016 7:00 pm

    Köszi

    benus32
    Töltögető
    Töltögető

    Hozzászólások száma : 11
    Join date : 2016. May. 20.

    Re: Privat Dvd-104 (2014). | Szinkronizált amatőr szex. | DVDRiP | data.hu

    Témanyitás  benus32 on Pént. Máj. 20, 2016 9:16 am

    Köszönöm!

    vigi1981
    Töltögető
    Töltögető

    Hozzászólások száma : 11
    Join date : 2016. May. 28.

    Re: Privat Dvd-104 (2014). | Szinkronizált amatőr szex. | DVDRiP | data.hu

    Témanyitás  vigi1981 on Szomb. Máj. 28, 2016 9:48 am

    köszi

    zet
    Leskelődő
    Leskelődő

    Hozzászólások száma : 5
    Join date : 2016. Sep. 27.

    Re: Privat Dvd-104 (2014). | Szinkronizált amatőr szex. | DVDRiP | data.hu

    Témanyitás  zet on Kedd. Szept. 27, 2016 8:44 pm

    Embarassed

    kbox2
    Leskelődő
    Leskelődő

    Hozzászólások száma : 3
    Join date : 2016. Oct. 04.

    Re: Privat Dvd-104 (2014). | Szinkronizált amatőr szex. | DVDRiP | data.hu

    Témanyitás  kbox2 on Kedd. Okt. 04, 2016 9:51 pm

    Embarassed

    blackvogel
    Leskelődő
    Leskelődő

    Hozzászólások száma : 5
    Join date : 2016. Nov. 04.

    Re: Privat Dvd-104 (2014). | Szinkronizált amatőr szex. | DVDRiP | data.hu

    Témanyitás  blackvogel on Pént. Nov. 04, 2016 4:53 pm

    kosz

    ftobias
    Leskelődő
    Leskelődő

    Hozzászólások száma : 5
    Join date : 2016. Nov. 23.

    Re: Privat Dvd-104 (2014). | Szinkronizált amatőr szex. | DVDRiP | data.hu

    Témanyitás  ftobias on Szer. Nov. 23, 2016 11:08 pm

    Thanks!

    Sponsored content

    Re: Privat Dvd-104 (2014). | Szinkronizált amatőr szex. | DVDRiP | data.hu

    Témanyitás  Sponsored content Today at 10:50 pm


      Pontos idő: Szomb. Dec. 03, 2016 10:50 pm