Szólj hozzá a témához és letöltheted a tartalmat!

Prémium előfizetésel több szálon, várakozás nélküli letöltés, nagy sebességgel!


    Privat Dvd-104 (2014). | Szinkronizált amatőr szex. | DVDRiP | data.hu

    Share
    avatar
    Admin
    Admin
    Admin

    Hozzászólások száma : 493
    Join date : 2012. Feb. 06.
    Age : 70
    Tartózkodási hely : Bp.

    Privat Dvd-104 (2014). | Szinkronizált amatőr szex. | DVDRiP | data.hu

    Témanyitás  Admin on Szomb. Márc. 07, 2015 2:35 pm

    First topic message reminder :







    Privat Dvd-104.

    Eredeti privát szexvideók, rengeteg magyar amatőr csajjal.

    Hang:  magyar

    Műfaj: sex



    Tartalom:
    Amatőr szex filmek .

    Complete name : Privßt DVD 104\Title 3.mp4
    Format : MPEG-4
    Format profile : Base Media / Version 2
    Codec ID : mp42
    File size : 419 MiB
    Duration : 26mn 14s
    Overall bit rate mode : Variable
    Overall bit rate : 2 232 Kbps
    Encoded date : UTC 2014-09-22 08:26:06
    Tagged date : UTC 2014-09-22 09:03:00
    Writing application : HandBrake 0.9.9 2013052900

    Video
    ID : 1
    Format : AVC
    Format/Info : Advanced Video Codec
    Format profile : High@L3.0
    Format settings, CABAC : Yes
    Format settings, ReFrames : 5 frames
    Codec ID : avc1
    Codec ID/Info : Advanced Video Coding
    Duration : 26mn 14s
    Bit rate mode : Variable
    Bit rate : 2 100 Kbps
    Width : 720 pixels
    Height : 576 pixels
    Display aspect ratio : 16:9
    Frame rate mode : Constant
    Frame rate : 25.000 fps
    Standard : PAL
    Color space : YUV
    Chroma subsampling : 4:2:0
    Bit depth : 8 bits
    Scan type : Progressive
    Bits/(Pixel*Frame) : 0.203
    Stream size : 394 MiB (94%)
    Writing library : x264 core 130 r2273 b3065e6


    Audio
    ID : 2
    Format : AAC
    Format/Info : Advanced Audio Codec
    Format profile : LC
    Codec ID : 40
    Duration : 26mn 14s
    Bit rate mode : Variable
    Bit rate : 128 Kbps
    Maximum bit rate : 154 Kbps
    Channel(s) : 2 channels
    Channel positions : Front: L R
    Sampling rate : 48.0 KHz
    Compression mode : Lossy
    Delay relative to video : 80ms
    Stream size : 24.0 MiB (6%)
    Language : English
    Encoded date : UTC 2014-09-22 08:26:06













    papu
    Fanatikus
    Fanatikus

    Hozzászólások száma : 30
    Join date : 2013. May. 27.

    Re: Privat Dvd-104 (2014). | Szinkronizált amatőr szex. | DVDRiP | data.hu

    Témanyitás  papu on Csüt. Jún. 22, 2017 9:59 am

    köszi

    WBrian
    Leskelődő
    Leskelődő

    Hozzászólások száma : 1
    Join date : 2017. Sep. 24.

    Re: Privat Dvd-104 (2014). | Szinkronizált amatőr szex. | DVDRiP | data.hu

    Témanyitás  WBrian on Vas. Szept. 24, 2017 12:33 pm

    ty

    Tanker2008
    Leskelődő
    Leskelődő

    Hozzászólások száma : 9
    Join date : 2017. Sep. 26.

    Re: Privat Dvd-104 (2014). | Szinkronizált amatőr szex. | DVDRiP | data.hu

    Témanyitás  Tanker2008 on Szer. Szept. 27, 2017 7:31 pm

    köszi

    gretzky99
    Töltögető
    Töltögető

    Hozzászólások száma : 16
    Join date : 2017. Oct. 04.

    Re: Privat Dvd-104 (2014). | Szinkronizált amatőr szex. | DVDRiP | data.hu

    Témanyitás  gretzky99 on Pént. Okt. 06, 2017 2:06 pm

    Köszi

    hibaskaroly
    Leskelődő
    Leskelődő

    Hozzászólások száma : 2
    Join date : 2018. Jan. 02.

    Re: Privat Dvd-104 (2014). | Szinkronizált amatőr szex. | DVDRiP | data.hu

    Témanyitás  hibaskaroly on Kedd Jan. 02, 2018 6:48 pm

    thx

    thismeanswar
    Leskelődő
    Leskelődő

    Hozzászólások száma : 2
    Join date : 2018. Jan. 20.

    Köszi

    Témanyitás  thismeanswar on Szomb. Jan. 20, 2018 12:09 am

    Köszi

    Ajánlott tartalom

    Re: Privat Dvd-104 (2014). | Szinkronizált amatőr szex. | DVDRiP | data.hu

    Témanyitás  Ajánlott tartalom


      Pontos idő: Vas. Júl. 22, 2018 6:02 am