Szólj hozzá a témához és letöltheted a tartalmat!

Prémium előfizetésel több szálon, várakozás nélküli letöltés, nagy sebességgel!


    Privat Dvd-78 (2011). | Szinkronizált amatőr szex. | DVDRiP.139 perc | data.hu

    Share

    Admin
    Admin
    Admin

    Hozzászólások száma : 493
    Join date : 2012. Feb. 06.
    Age : 68
    Tartózkodási hely : Bp.

    Privat Dvd-78 (2011). | Szinkronizált amatőr szex. | DVDRiP.139 perc | data.hu

    Témanyitás  Admin on Szer. Feb. 22, 2012 8:16 pm

    First topic message reminder :










    Privat Dvd 78.Dvd Rip.- datán.

    Eredeti privát szexvideók, rengeteg magyar amatőr csajjal.

    Hang: magyar

    Műfaj: sex



    Tartalom:
    Amatőr szex filmek .

    PDVD_78.

    Codec ID : DX50
    Codec ID/Hint : DivX 5
    Duration : 1h 57mn
    Bit rate : 2 400 Kbps
    Width : 1 024 pixels
    Height : 576 pixels
    Display aspect ratio : 16:9
    Frame rate : 23.976 fps
    Color space : YUV
    Chroma subsampling : 4:2:0
    Bit depth : 8 bits
    Scan type : Progressive
    Compression mode : Lossy
    Bits/(Pixel*Frame) : 0.170
    Stream size : 1.97 GiB (94%)
    Writing library : Lavc51.40.4

    Audio
    ID : 1
    Format : MPEG Audio
    Format version : Version 1
    Format profile : Layer 3
    Mode : Joint stereo
    Mode extension : MS Stereo
    Codec ID : 55
    Codec ID/Hint : MP3
    Duration : 1h 57mn
    Bit rate mode : Constant
    Bit rate : 128 Kbps
    Channel(s) : 2 channels











    Nincs jelszó,szabadon terjeszthető.
    NÉZD MEG A TÖBBI FELTÖLTÉSEMET IS!

    Vendég
    Vendég

    Re: Privat Dvd-78 (2011). | Szinkronizált amatőr szex. | DVDRiP.139 perc | data.hu

    Témanyitás  Vendég on Szomb. Ápr. 21, 2012 6:45 am

    kőszi

    peterxxx
    Leskelődő
    Leskelődő

    Hozzászólások száma : 5
    Join date : 2012. Apr. 29.

    Re: Privat Dvd-78 (2011). | Szinkronizált amatőr szex. | DVDRiP.139 perc | data.hu

    Témanyitás  peterxxx on Vas. Ápr. 29, 2012 9:07 am

    thx

    peterxxx
    Leskelődő
    Leskelődő

    Hozzászólások száma : 5
    Join date : 2012. Apr. 29.

    Re: Privat Dvd-78 (2011). | Szinkronizált amatőr szex. | DVDRiP.139 perc | data.hu

    Témanyitás  peterxxx on Vas. Ápr. 29, 2012 9:30 am

    thx

    greyloop
    Leskelődő
    Leskelődő

    Hozzászólások száma : 3
    Join date : 2012. Apr. 29.

    Re: Privat Dvd-78 (2011). | Szinkronizált amatőr szex. | DVDRiP.139 perc | data.hu

    Témanyitás  greyloop on Vas. Ápr. 29, 2012 1:59 pm

    köszi szépen!

    Punksapka
    Leskelődő
    Leskelődő

    Hozzászólások száma : 6
    Join date : 2012. Apr. 27.

    Re: Privat Dvd-78 (2011). | Szinkronizált amatőr szex. | DVDRiP.139 perc | data.hu

    Témanyitás  Punksapka on Vas. Ápr. 29, 2012 8:26 pm

    kösz!

    jtfan
    Leskelődő
    Leskelődő

    Hozzászólások száma : 2
    Join date : 2012. Apr. 30.

    Re: Privat Dvd-78 (2011). | Szinkronizált amatőr szex. | DVDRiP.139 perc | data.hu

    Témanyitás  jtfan on Hétf. Ápr. 30, 2012 12:31 am

    thanks

    cirkalo85
    Leskelődő
    Leskelődő

    Hozzászólások száma : 1
    Join date : 2012. May. 01.

    Privat Dvd-78 (2011). | Szinkronizált amatőr szex. | DVDRiP.139 perc | data.hu

    Témanyitás  cirkalo85 on Kedd. Máj. 01, 2012 9:33 am

    köszi

    Ron79
    Leskelődő
    Leskelődő

    Hozzászólások száma : 2
    Join date : 2012. May. 02.

    Re: Privat Dvd-78 (2011). | Szinkronizált amatőr szex. | DVDRiP.139 perc | data.hu

    Témanyitás  Ron79 on Szer. Máj. 02, 2012 4:11 pm

    Punksapka írta:kösz!
    Köszi én is Smile

    nero222
    Leskelődő
    Leskelődő

    Hozzászólások száma : 1
    Join date : 2012. May. 02.

    Re: Privat Dvd-78 (2011). | Szinkronizált amatőr szex. | DVDRiP.139 perc | data.hu

    Témanyitás  nero222 on Szer. Máj. 02, 2012 6:20 pm

    Kösz

    Zyz001
    Töltögető
    Töltögető

    Hozzászólások száma : 12
    Join date : 2012. Apr. 10.

    Re: Privat Dvd-78 (2011). | Szinkronizált amatőr szex. | DVDRiP.139 perc | data.hu

    Témanyitás  Zyz001 on Pént. Máj. 04, 2012 6:39 am

    kösz

    asdasdkuri
    Leskelődő
    Leskelődő

    Hozzászólások száma : 1
    Join date : 2012. May. 06.

    Re: Privat Dvd-78 (2011). | Szinkronizált amatőr szex. | DVDRiP.139 perc | data.hu

    Témanyitás  asdasdkuri on Vas. Máj. 06, 2012 7:16 am

    tongue

    fRici001
    Leskelődő
    Leskelődő

    Hozzászólások száma : 8
    Join date : 2012. Apr. 06.

    Re: Privat Dvd-78 (2011). | Szinkronizált amatőr szex. | DVDRiP.139 perc | data.hu

    Témanyitás  fRici001 on Hétf. Máj. 07, 2012 1:19 pm

    thx,

    lucika
    Leskelődő
    Leskelődő

    Hozzászólások száma : 1
    Join date : 2012. May. 21.

    köszi

    Témanyitás  lucika on Hétf. Máj. 21, 2012 9:28 am

    Admin írta:








    Privat Dvd 78.Dvd Rip.- datán.

    Eredeti privát szexvideók, rengeteg magyar amatőr csajjal.

    Hang: magyar

    Műfaj: sex



    Tartalom:
    Amatőr szex filmek .

    PDVD_78.

    Codec ID : DX50
    Codec ID/Hint : DivX 5
    Duration : 1h 57mn
    Bit rate : 2 400 Kbps
    Width : 1 024 pixels
    Height : 576 pixels
    Display aspect ratio : 16:9
    Frame rate : 23.976 fps
    Color space : YUV
    Chroma subsampling : 4:2:0
    Bit depth : 8 bits
    Scan type : Progressive
    Compression mode : Lossy
    Bits/(Pixel*Frame) : 0.170
    Stream size : 1.97 GiB (94%)
    Writing library : Lavc51.40.4

    Audio
    ID : 1
    Format : MPEG Audio
    Format version : Version 1
    Format profile : Layer 3
    Mode : Joint stereo
    Mode extension : MS Stereo
    Codec ID : 55
    Codec ID/Hint : MP3
    Duration : 1h 57mn
    Bit rate mode : Constant
    Bit rate : 128 Kbps
    Channel(s) : 2 channels











    Nincs jelszó,szabadon terjeszthető.
    NÉZD MEG A TÖBBI FELTÖLTÉSEMET IS!

    kfeco
    Fanatikus
    Fanatikus

    Hozzászólások száma : 30
    Join date : 2012. May. 07.

    Re: Privat Dvd-78 (2011). | Szinkronizált amatőr szex. | DVDRiP.139 perc | data.hu

    Témanyitás  kfeco on Hétf. Máj. 21, 2012 2:31 pm

    Very Happy

    jarod75
    Töltögető
    Töltögető

    Hozzászólások száma : 16
    Join date : 2012. May. 29.

    Re: Privat Dvd-78 (2011). | Szinkronizált amatőr szex. | DVDRiP.139 perc | data.hu

    Témanyitás  jarod75 on Kedd. Máj. 29, 2012 12:51 pm

    köszi szépen

    kocka557
    Töltögető
    Töltögető

    Hozzászólások száma : 11
    Join date : 2012. May. 29.

    Re: Privat Dvd-78 (2011). | Szinkronizált amatőr szex. | DVDRiP.139 perc | data.hu

    Témanyitás  kocka557 on Kedd. Máj. 29, 2012 10:10 pm

    köszi

    geryk80
    Leskelődő
    Leskelődő

    Hozzászólások száma : 2
    Join date : 2012. May. 30.

    Re: Privat Dvd-78 (2011). | Szinkronizált amatőr szex. | DVDRiP.139 perc | data.hu

    Témanyitás  geryk80 on Szer. Máj. 30, 2012 8:46 am

    Köszi

    kihaennem
    Töltögető
    Töltögető

    Hozzászólások száma : 12
    Join date : 2012. Jun. 01.

    Re: Privat Dvd-78 (2011). | Szinkronizált amatőr szex. | DVDRiP.139 perc | data.hu

    Témanyitás  kihaennem on Pént. Jún. 01, 2012 12:08 pm

    k

    hegedi
    Leskelődő
    Leskelődő

    Hozzászólások száma : 1
    Join date : 2012. Jun. 01.

    Re: Privat Dvd-78 (2011). | Szinkronizált amatőr szex. | DVDRiP.139 perc | data.hu

    Témanyitás  hegedi on Pént. Jún. 01, 2012 10:27 pm

    köszi

    kovaxtromb
    Fanatikus
    Fanatikus

    Hozzászólások száma : 23
    Join date : 2012. Jun. 02.

    Re: Privat Dvd-78 (2011). | Szinkronizált amatőr szex. | DVDRiP.139 perc | data.hu

    Témanyitás  kovaxtromb on Szomb. Jún. 02, 2012 9:47 pm

    köszi

    kovaxtromb
    Fanatikus
    Fanatikus

    Hozzászólások száma : 23
    Join date : 2012. Jun. 02.

    Re: Privat Dvd-78 (2011). | Szinkronizált amatőr szex. | DVDRiP.139 perc | data.hu

    Témanyitás  kovaxtromb on Vas. Jún. 03, 2012 3:07 am

    kosz

    gumike
    Töltögető
    Töltögető

    Hozzászólások száma : 13
    Join date : 2012. Jun. 08.

    Re: Privat Dvd-78 (2011). | Szinkronizált amatőr szex. | DVDRiP.139 perc | data.hu

    Témanyitás  gumike on Pént. Jún. 08, 2012 8:41 am

    köszi

    szaharin
    Töltögető
    Töltögető

    Hozzászólások száma : 14
    Join date : 2012. Jun. 19.

    Re: Privat Dvd-78 (2011). | Szinkronizált amatőr szex. | DVDRiP.139 perc | data.hu

    Témanyitás  szaharin on Kedd. Jún. 19, 2012 11:09 am

    Jó kis anyag. Köszi

    gabika80
    Leskelődő
    Leskelődő

    Hozzászólások száma : 2
    Join date : 2012. Jun. 20.

    Re: Privat Dvd-78 (2011). | Szinkronizált amatőr szex. | DVDRiP.139 perc | data.hu

    Témanyitás  gabika80 on Szer. Jún. 20, 2012 6:33 am

    köszi

    gwagen
    Leskelődő
    Leskelődő

    Hozzászólások száma : 6
    Join date : 2012. Jun. 21.

    Re: Privat Dvd-78 (2011). | Szinkronizált amatőr szex. | DVDRiP.139 perc | data.hu

    Témanyitás  gwagen on Csüt. Jún. 21, 2012 9:19 am

    tnx

    Sponsored content

    Re: Privat Dvd-78 (2011). | Szinkronizált amatőr szex. | DVDRiP.139 perc | data.hu

    Témanyitás  Sponsored content Today at 4:22 pm


      Pontos idő: Pént. Dec. 09, 2016 4:22 pm